[ Сегодня идет свободное скачивание без начисления Download ]


Статистика раздачи
Нет
 
   
 
Top  
 
 
Терра Нова / Terra Nova«There is no paradise without sacrifice.»
Сезон 1, Эпизоды c 1 по 12 из (12) Год выпуска: 2011
Страна: США, Австралия
Производство: 20th Century Fox Television
Жанр: фантастика, детектив, приключения
Режиссер: Джон Кассар, Карен Гавиола, Алекс Грейвз
В ролях: Джейсон О’Мара, Шелли Конн, Кристин Адамс, Эллисон Миллер, Лэндон Либуарон, Наоми Скотт, Алана Мансур, Стивен Лэнг, Симона Кэссел, Род Халлетт
Перевод: Профессиональный (многоголосый, закадровый)
+ Оригинал

Озвучка: LostFilm
Субтитры: Отсутствуют
Описание: События сериала затрагивают вопросы сохранения Земли и человеческой цивилизации в отдаленном будущем.
В 2149 году голубая планета переживает масштабные экологические потрясения и демографический кризис, связанный с перенаселением.
Запасы природных ресурсов практически исчерпаны, и человеческое общество поставлено перед угрозой вымирания.
Мировое правительство принимает решение десантировать группы специально обученных людей в доисторические времена с целью основания альтернативной ветви реальности.
С помощью аппарата, способного генерировать мощнейший заряд энергии и буквально прорывать пространственно-временные границы, группы ученых и солдат поэтапно пребывают
на Новую Землю – поселение людей в мезозойской эре.
Действия сериала "Terra Nova" начинаются непосредственно перед началом десятой по счету переправы людей будущего во времена динозавров. Как и многие другие,
семья Шеннонов была отобрана для участия в проекте с помощью специальной правительственной лотереи. Отец, мать и трое детей, оказавшись по ту сторону настоящего,
постепенно приходят к осознанию того, что новый мир далек от созданного властью мифического образа. Поселение Терра Нова в действительности оказывается не защищенным
от опасности и угроз со стороны хищников, которые бесцеремонно пожирают людей. С другой стороны, обнаруживается, что стремление спасти человечество совершенно чуждо
некоторым членам правящей группы. Смогут ли Шенноны сохранить привезенный с собою семейный секрет и противостоять внешним силам в созданном поселенцами утопическом мире,
и даст ли девственная Терра Нова новый шанс ее пришельцам?

[kp]542302[/kp] [imdb]tt1641349[/imdb]

Список эпизодов

01. Генезис / Genesis
02. Инстинкт / Instinct
03. То, что останется / What Remains
04. Беглец / The Runaway
05. Устав / Bylaw
06. Сумерки / Nightfall
07. Доказательство / Proof
08. Противостояние / Vs.
09. Теперь ты видишь меня / Now You See Me
10. Внутри / Within
11. Оккупация / Occupation
12. Сопротивление / Resistance
Качество: WEB-DL 720p
Продолжительность: 01 х ~01:26:26 02-12 х ~00:45:00
Формат: MKV
Видео кодек: Н.264
Аудио кодек: AC3
Видео: 1280x720 (16:9), 23,976 fps, Н.264, ~4101 kbps, 0,186 bit/pixel
Аудио: Rus: AC3, 2 канала 48,0 КГц, 384 Кбит/сек
Аудио #2: Eng: AC3, 2 канала 48,0 КГц, 384 Кбит/сек

Media Info

Общее
Уникальный идентификатор                 : 204392006579730846068692823334310730749 (0x99C477F5496C3965A92455B05B015BFD)
Полное имя                               : G:\сериалы\TERRA NOVA\Terra.Nova.s01e04.720p.rus.LostFilm.TV.mkv
Формат                                   : Matroska
Версия формата                           : Version 2
Размер файла                             : 1,53 Гбайт
Продолжительность                        : 44 м.
Общий поток                              : 4967 Кбит/сек
Дата кодирования                         : UTC 2011-10-18 21:44:54
Программа кодирования                    : mkvmerge v4.3.0 ('Escape from the Island') сборка от Sep  5 2010 10:30:51
Библиотека кодирования                   : libebml v1.0.0 + libmatroska v1.0.0
Видео
Идентификатор                            : 1
Формат                                   : AVC
Формат/Информация                        : Advanced Video Codec
Профиль формата                          : High@L3.1
Параметр CABAC формата                   : Нет
Параметр ReFrames формата                : 2 кадра
Идентификатор кодека                     : V_MPEG4/ISO/AVC
Продолжительность                        : 44 м.
Битрейт                                  : 4101 Кбит/сек
Ширина                                   : 1280 пикселей
Высота                                   : 720 пикселей
Соотношение сторон                       : 16:9
Режим частоты кадров                     : Постоянный
Частота кадров                           : 23,976 кадра/сек
Цветовое пространство                    : YUV
Субдискретизация насыщенности            : 4:2:0
Битовая глубина                          : 8 бит
Тип развёртки                            : Прогрессивная
Бит/(Пиксели*Кадры)                      : 0.186
Размер потока                            : 1,26 Гбайт (83%)
Язык                                     : English
Default                                  : Да
Forced                                   : Нет
Основные цвета                           : BT.709
Характеристики трансфера                 : BT.709
Коэффициенты матрицы                     : BT.709
Аудио #1
Идентификатор                            : 2
Формат                                   : AC-3
Формат/Информация                        : Audio Coding 3
Расширение режима                        : CM (complete main)
Параметр Endianness формата              : Big
Идентификатор кодека                     : A_AC3
Продолжительность                        : 44 м.
Вид битрейта                             : Постоянный
Битрейт                                  : 384 Кбит/сек
Каналы                                   : 2 канала
Расположение каналов                     : Front: L R
Частота                                  : 48,0 КГц
Битовая глубина                          : 16 бит
Метод сжатия                             : С потерями
Размер потока                            : 121 Мбайт (8%)
Default                                  : Да
Forced                                   : Нет
Аудио #2
Идентификатор                            : 3
Формат                                   : AC-3
Формат/Информация                        : Audio Coding 3
Расширение режима                        : CM (complete main)
Параметр Endianness формата              : Big
Идентификатор кодека                     : A_AC3
Продолжительность                        : 44 м.
Вид битрейта                             : Постоянный
Битрейт                                  : 384 Кбит/сек
Каналы                                   : 2 канала
Расположение каналов                     : Front: L R
Частота                                  : 48,0 КГц
Битовая глубина                          : 16 бит
Метод сжатия                             : С потерями
Размер потока                            : 121 Мбайт (8%)
Default                                  : Нет
Forced                                   : Нет

Скриншоты

[Цитировать]



Показать сообщения:    

Текущее время: 08-Дек 19:11

Часовой пояс: UTC + 3


Вы не можете начинать темы
Вы не можете отвечать на сообщения
Вы не можете редактировать свои сообщения
Вы не можете удалять свои сообщения
Вы не можете голосовать в опросах
Вы не можете прикреплять файлы к сообщениям
Вы не можете скачивать файлы

!ВНИМАНИЕ!
Сайт не предоставляет электронные версии произведений, а занимается лишь коллекционированием и каталогизацией ссылок, присылаемых и публикуемых на форуме нашими читателями. Если вы являетесь правообладателем какого-либо представленного материала и не желаете, чтобы ссылка на него находилась в нашем каталоге, свяжитесь с нами, и мы незамедлительно удалим ее. Файлы для обмена на трекере предоставлены пользователями сайта, и администрация не несет ответственности за их содержание. Просьба не заливать файлы, защищенные авторскими правами, а также файлы нелегального содержания!