[ Сегодня идет свободное скачивание без начисления Download ]


Статистика раздачи
Скачал: [ 2 ]
 
   
 
Top  
 
 
Свидание с войной [01-04 из 04] (2016) HDTVRip-AVC Страна: Россия
Производство: CTC Media
Жанр: военный, история
Год выпуска: 2016
Продолжительность: 03:02:08 (00:48:20 + 00:47:32 + 00:40:12 + 00:46:06)
Перевод: не требуется
Субтитры: нет
Оригинальная аудиодорожка: русский
Режиссер: Никита Лойк, Константин Райх
В ролях:
Светлана Глазырина, Снежана Прудько, Инна Егорова, Мария Синяева, Антон Гуляев, Павел Гончаров, Леонид Паршин...
Описание:
Во время Великой Отечественной войны не было значения, кто держит автомат в руках, мужчина или женщина. По сути, за освобождение Родины сражались все советские люди, в том числе и дети. Женщины в фильме "Свидание с войной" научились ненавидеть и убивать своих врагов, но жизнь даже в военное время была тесно связана с бытовыми проблемами. Девушки выходили замуж, рожали детей. И все это происходило под залп орудия. На свидания они бегали в окопы, а вместо дорогого подарка была банка тушенки. Конечно, хрупкие дамы на фронте смотрелись нелепо в тяжелых сапогах. Но они сражались за любовь к Родине, за будущее своих детей.- -Исходник: HDTVRip 720p
Качество: HDTVRip-AVC
Формат: MKV
Видео: 1024x576 (16:9), 25 fps, H264 ~ 2061 kbps avg, 0.146 bit/pixel
Аудио: 48 kHz, Dolby Digital AC3 2.0, 192 kbps

Серии


01. Сестрички
02. Любовь в оккупации
03. Спасайся кто может
04. Они тоже сражались за родину

MediaInfo

Общее
Полное имя : Svidanie.s.voynoy.2016.HDTVRip-AVC_[New-team]_by_AVP_Studio1. Сестрички.mkv
Формат : Matroska
Версия формата : Version 2
Размер файла : 780 Мбайт
Продолжительность : 48 м.
Общий поток : 2255 Кбит/сек
Дата кодирования : UTC 2016-05-07 00:43:28
Программа кодирования : mkvmerge v6.1.0 ('Old Devil') built on Mar 4 2013 09:10:42
Библиотека кодирования : libebml v1.3.0 + libmatroska v1.4.0
Видео
Идентификатор : 1
Формат : AVC
Формат/Информация : Advanced Video Codec
Профиль формата : [email protected]
Параметр CABAC формата : Да
Параметр ReFrames формата : 10 кадров
Идентификатор кодека : V_MPEG4/ISO/AVC
Продолжительность : 48 м.
Битрейт : 2061 Кбит/сек
Ширина : 1024 пикселя
Высота : 576 пикселей
Соотношение сторон : 16:9
Режим частоты кадров : Постоянный
Частота кадров : 24,000 кадра/сек
Цветовое пространство : YUV
Субдискретизация насыщенности : 4:2:0
Битовая глубина : 8 бит
Тип развёртки : Прогрессивная
Бит/(Пиксели*Кадры) : 0.146
Размер потока : 698 Мбайт (89%)
Библиотека кодирования : x264 core 148 r2597 e86f3a1
Настройки программы : cabac=1 / ref=10 / deblock=1:-3:-2 / analyse=0x3:0x113 / me=umh / subme=10 / psy=1 / psy_rd=1.00:0.00 / mixed_ref=1 / me_range=32 / chroma_me=1 / trellis=2 / 8x8dct=1 / cqm=0 / deadzone=21,11 / fast_pskip=1 / chroma_qp_offset=-2 / threads=6 / lookahead_threads=1 / sliced_threads=0 / nr=0 / decimate=0 / interlaced=0 / bluray_compat=0 / constrained_intra=0 / bframes=8 / b_pyramid=2 / b_adapt=2 / b_bias=0 / direct=3 / weightb=1 / open_gop=0 / weightp=2 / keyint=240 / keyint_min=24 / scenecut=40 / intra_refresh=0 / rc_lookahead=40 / rc=2pass / mbtree=1 / bitrate=2061 / ratetol=1.0 / qcomp=0.60 / qpmin=0 / qpmax=69 / qpstep=4 / cplxblur=20.0 / qblur=0.5 / ip_ratio=1.40 / aq=1:1.00
Default : Да
Forced : Нет
Аудио
Идентификатор : 2
Формат : AC-3
Формат/Информация : Audio Coding 3
Расширение режима : CM (complete main)
Параметр Endianness формата : Big
Идентификатор кодека : A_AC3
Продолжительность : 48 м.
Вид битрейта : Постоянный
Битрейт : 192 Кбит/сек
Каналы : 2 канала
Расположение каналов : Front: L R
Частота : 48,0 КГц
Частота кадров : 31,250 кадров/сек (1536 spf)
Метод сжатия : С потерями
Размер потока : 66,4 Мбайт (9%)
Default : Да
Forced : Нет

Скриншоты

[Цитировать]



Показать сообщения:    

Текущее время: 06-Дек 08:45

Часовой пояс: UTC + 3


Вы не можете начинать темы
Вы не можете отвечать на сообщения
Вы не можете редактировать свои сообщения
Вы не можете удалять свои сообщения
Вы не можете голосовать в опросах
Вы не можете прикреплять файлы к сообщениям
Вы не можете скачивать файлы

!ВНИМАНИЕ!
Сайт не предоставляет электронные версии произведений, а занимается лишь коллекционированием и каталогизацией ссылок, присылаемых и публикуемых на форуме нашими читателями. Если вы являетесь правообладателем какого-либо представленного материала и не желаете, чтобы ссылка на него находилась в нашем каталоге, свяжитесь с нами, и мы незамедлительно удалим ее. Файлы для обмена на трекере предоставлены пользователями сайта, и администрация не несет ответственности за их содержание. Просьба не заливать файлы, защищенные авторскими правами, а также файлы нелегального содержания!