[ Today is free to download without increasing Download ]

DL-List and Torrent activity
Дубликаты / In Their Skin«Yours is the life they've chosen»
Год выпуска: 2012
Страна: Канада
Производство: Sepia Films, Studio Movement Entertainment, T?l?film Canada
Жанр: Триллер
Режиссер: Джереми Регимбал
В ролях: Сэльма Блэр, Джошуа Клоуз, Джеймс Д’Арси, Рэйчел Майнер, Куинн Лорд, Алекс Феррис, Лиэнн Адачи, Мэтт Беллефло, Агам Дарши, Дебби Хирата
Перевод: Любительский (одноголосый)
Субтитры: Отсутствуют
Описание: Пытаясь прийти в себя после недавней трагедии — смерти шестилетней дочери — Марк и Мэри Хьюз берут с собой сына Брэндона и уезжают в глушь, где у них есть коттедж. Им хочется одиночества, тишины и спокойствия, но на пороге их уединенного жилища неожиданно возникает радушная соседская семья — Бобби, Джейн и их сын Джаред, — которой не терпится поприветствовать вновь прибывших. Они приносят дров и напрашиваются на ужин. Вежливые хозяева приглашают гостей в дом, однако скоро они пожалеют о своём гостеприимстве.
[kp]http://www.kinopoisk.ru/film/575191/[/kp] [imdb]http://imdb.snick.ru/movie/tt1790869[/imdb]
Качество: WEB-DLRip
Продолжительность: 01:36:29
Формат: AVI
Видео кодек: XviD
Аудио кодек: AC3
Видео: 720x304 (2.35:1), 23.976 fps, XviD, ~1825 kbps avg, 0.35 bit/pixel
Аудио: 48 kHz, AC3 Dolby Digital, 2/0 (L,R) ch, ~192 kbps
Премьера (мир): 21 апреля 2012

Media Info

Complete name                  : D:\Torrent\In.Their.Skin.2012.L1.WEBDLRip_.avi
Format                         : AVI
Format/Info                    : Audio Video Interleave
File size                      : 1.37 GiB
Duration                       : 1h 36mn
Overall bit rate               : 2 027 Kbps
Writing application            : VirtualDubMod | www.virtualdub-fr.org || (build 2550/release)
Writing library                : VirtualDubMod build 2550/release
ID                             : 0
Format                         : MPEG-4 Visual
Format profile                 : Advanced Simple@L5
Format settings, BVOP          : 2
Format settings, QPel          : No
Format settings, GMC           : No warppoints
Format settings, Matrix        : Default (H.263)
Codec ID                       : XVID
Codec ID/Hint                  : XviD
Duration                       : 1h 36mn
Bit rate                       : 1 825 Kbps
Width                          : 720 pixels
Height                         : 304 pixels
Display aspect ratio           : 2.35:1
Frame rate                     : 23.976 fps
Color space                    : YUV
Chroma subsampling             : 4:2:0
Bit depth                      : 8 bits
Scan type                      : Progressive
Compression mode               : Lossy
Bits/(Pixel*Frame)             : 0.348
Stream size                    : 1.23 GiB (90%)
Writing library                : XviD 1.2.1 (UTC 2008-12-04)
ID                             : 1
Format                         : AC-3
Format/Info                    : Audio Coding 3
Mode extension                 : CM (complete main)
Format settings, Endianness    : Big
Codec ID                       : 2000
Duration                       : 1h 36mn
Bit rate mode                  : Constant
Bit rate                       : 192 Kbps
Channel(s)                     : 2 channels
Channel positions              : Front: L R
Sampling rate                  : 48.0 KHz
Bit depth                      : 16 bits
Compression mode               : Lossy
Stream size                    : 133 MiB (9%)
Alignment                      : Split accross interleaves
Interleave, duration           : 42 ms (1.00 video frame)
Interleave, preload duration   : 500 ms
[th]http://torrentsclub.org/pictures/63ae41a7daee6f8bc4...1868d80.jpg[/th] [th]http://torrentsclub.org/pictures/0a358114792285ad84...5f9931c.jpg[/th] [th]http://torrentsclub.org/pictures/aef38aefedbb25ee27...131d612.jpg[/th]


Display posts:    

Current time is: 28-Oct 20:51

All times are UTC + 3

You cannot post new topics in this forum
You cannot reply to topics in this forum
You cannot edit your posts in this forum
You cannot delete your posts in this forum
You cannot vote in polls in this forum
You cannot attach files in this forum
You cannot download files in this forum

The site does not give electronic versions of products, and is engaged only in a collecting and cataloguing of the references sent and published at a forum by our readers. If you are the legal owner of any submitted material and do not wish that the reference to it was in our catalogue, contact us and we shall immediately remove her. Files for an exchange on tracker are given by users of a site, and the administration does not bear the responsibility for their maintenance. The request to not fill in the files protected by copyrights, and also files of the illegal maintenance!