[ Сегодня идет свободное скачивание без начисления Download ]


Статистика раздачи
Буду качать: [ 1 ]
Качаю: [ 2 ]
Скачал: [ 15 ]
 
   
 
Top  
 
 
- WebForMySelf | Joomla-Профессионал: создание расширений для Joomla (2015) PCRec - Автор (режиссер): Виктор Гавриленко
Жанр: Joomla, web, php
Описание:
Это первый и единственный видеокурс в Рунете, который обучает создавать расширения практически любой сложности на CMS Joomla, а также раскрывает все аспекты API Joomla.
В данном курсе мы будем учиться с вами писать собственные расширения с абсолютного нуля для системы управления контентом Joomla.
От вас потребуются лишь базовые знания движка Joomla, но совершенно не обязательно уметь программировать на PHP или владеть навыками объектно-ориентированного программирования.
Всему этому мы будем обучаться в данном видеокурсе: с полного нуля – до уровня профессионального разработчика расширений для CMS Joomla.
Продолжительность: 77:25:19
Качество видео: PCRec
Видео: AVC/H.264, 1280x720, ~197 - 371 Kbps
Аудио: AAC, 2 ch, 125 Kbps, CBR

Содержание курса:

Уроки первой части [ Раздел 1 ]:
1. Введение
2. Создание файловой структуры
3. Манифест-файл
4. Установка таблиц компонента
5. Локализация расширений
6. Выполнение скриптов во время установки расширений
7. Первый шаг к MVC
8. Панель управления менеджера типов. Часть 1
9. Панель управления менеджера типов. Часть 2
10. Sub-контроллеры
11. Вид страницы добавления нового типа объявлений. Подключение модели
12. Выбор модели. Стандартные поля Joomla Часть 1
13. Стандартные поля Joomla Часть 2
14. Отображение элементов форм. Класс JForm
15. Шаблон страницы добавления нового типа
16. Сохранение типа объявлений в базе данных
17. Редактирование типов
18. Вывод добавленных типов на экране
19. Драйвер работы с базой данных. Часть 1
20. Драйвер работы с базой данных. Часть 2
21. Вывод добавленных типов на экране. Часть 2
22. Публикация типов
23. Автоматическая генерация псевдонимов
24. Добавление боковой панели
25. Основные виды менеджера категорий
26. Формирование вкладок на странице добавления категории
27. Создание собственных типов полей
28. Отображение пользовательского поля
29. Сохранение новых категорий в базе данных
30. Вывод данных менеджера категорий
31. Постраничная навигация
32. Состояния модели и сессии пользователей
33. Сортировка категорий
34. Сортировка категорий по порядку
35. Удаление категорий
36. Изменение состояния категорий
37. Менеджер объявлений
38. Пользовательское поле. Типы объявлений
39. Пользовательское поле. Категории объявлений
40. Валидация данных. Часть 1
41. Валидация данных. Часть 2
42. Сохранение объявления в базу данных
43. Изображения объявлений
44. Текст объявления
45. Модерация объявлений. Часть 1
46. Модерация объявлений. Часть 2
47. Фильтры в менеджере объявлений. Часть 1
48. Фильтры в менеджере объявлений. Часть 2
49. Глобальные настройки компонента
50. Права и привилегии пользователей. Часть 1
51. Права и привилегии пользователей. Часть 2
52. Права и привилегии пользователей. Часть 3
53. Права и привилегии пользователей. Часть 4
54. Права и привилегии пользователей. Часть 5
55. Заключение
Уроки второй части [ Раздел 1 ]
1. Точка входа. Главная страница сайта
2. Модель вида Messages
3. Шаблон главной страницы
4. Страница полного содержимого объявления. Часть 1
5. Страница полного содержимого объявления. Часть 2
6. Количество просмотров объявлений
7. Главное меню сайта
8. Вид категории
9. Пользовательское поле – всплывающее окно. Часть 1
10. Пользовательское поле – всплывающее окно. Часть 2
11. Учетная запись пользователя. Часть 1
12. Учетная запись пользователя. Часть 2
13. Добавление объявление в пользовательской части. Часть 1
14. Добавление объявление в пользовательской части. Часть 2
15. Человеко-понятные URL. Часть 1
16. Человеко-понятные URL. Часть 2
17. Человеко-понятные URL. Часть 3
18. Человеко-понятные URL. Часть 4
19. Человеко-понятные URL. Часть 5
20. Человеко-понятные URL. Часть 6
21. Человеко-понятные URL. Часть 7
22. Человеко-понятные URL. Часть 8
23. Человеко-понятные URL. Часть 9
24. Заключение
Уроки первой части [ Раздел 2 ]
1. Файловая структура модуля категорий
2. Файл манифест
3. Локализация модулей
4. Точка входа для модуля
5. Файл helper.php отображение данных модуля
6. Взаимодействие модуля и компонента
Уроки второй части [ Раздел 2 ]
1. Файловая структура модуля и файл манифест
2. Точка входа
3. Хелпер модуля
4. Макет отображения данных модуля
Уроки первой части [ Раздел 3 ]
1. Введение
2. Файловая структура плагина
3. Файл манифест
4. Основное ядро плагина
5. Макет отображения данных плагина
Уроки второй части [ Раздел 3 ]
1. Файловая структура плагина
2. Файл манифест
3. Основное ядро плагина
4. Макет отображения данных плагина
Бонус 1
Курс по PHP
Бонус 2
Премиум курс по ООП PHP
Бонус 3
Премиум-курс по созданию модулей Joomla

Mediainfo:

General
Complete name                            : C:\torrent\Joomla WFMS\disk 1\videokurs\part1\1.mp4
Format                                   : MPEG-4
Format profile                           : Base Media / Version 2
Codec ID                                 : mp42 (M4V /mp42/isom)
File size                                : 18.5 MiB
Duration                                 : 7mn 11s
Overall bit rate                         : 360 Kbps
Encoded date                             : UTC 2015-11-13 14:31:43
Tagged date                              : UTC 2015-11-13 14:31:43
Video
ID                                       : 1
Format                                   : AVC
Format/Info                              : Advanced Video Codec
Format profile                           : [email protected]
Format settings, CABAC                   : Yes
Format settings, ReFrames                : 4 frames
Codec ID                                 : avc1
Codec ID/Info                            : Advanced Video Coding
Duration                                 : 7mn 11s
Source duration                          : 7mn 11s
Bit rate                                 : 234 Kbps
Width                                    : 1 280 pixels
Height                                   : 720 pixels
Display aspect ratio                     : 16:9
Frame rate mode                          : Constant
Frame rate                               : 15.000 fps
Color space                              : YUV
Chroma subsampling                       : 4:2:0
Bit depth                                : 8 bits
Scan type                                : Progressive
Bits/(Pixel*Frame)                       : 0.017
Stream size                              : 12.0 MiB (65%)
Source stream size                       : 12.0 MiB (65%)
Language                                 : English
Encoded date                             : UTC 2015-11-13 14:31:43
Tagged date                              : UTC 2015-11-13 14:31:43
Color range                              : Limited
Color primaries                          : BT.709
Transfer characteristics                 : BT.709
Matrix coefficients                      : BT.709
mdhd_Duration                            : 431034
Audio
ID                                       : 2
Format                                   : AAC
Format/Info                              : Advanced Audio Codec
Format profile                           : LC
Codec ID                                 : 40
Duration                                 : 7mn 11s
Source duration                          : 7mn 11s
Bit rate mode                            : Constant
Bit rate                                 : 124 Kbps
Channel(s)                               : 2 channels
Channel positions                        : Front: L R
Sampling rate                            : 44.1 KHz
Frame rate                               : 43.066 fps (1024 spf)
Compression mode                         : Lossy
Stream size                              : 6.39 MiB (35%)
Source stream size                       : 6.39 MiB (35%)
Language                                 : English
Encoded date                             : UTC 2015-11-13 14:31:43
Tagged date                              : UTC 2015-11-13 14:31:43
mdhd_Duration                            : 431050
General
Complete name                            : C:\torrent\Joomla WFMS\disk 1\videokurs\part1\10.mp4
Format                                   : MPEG-4
Format profile                           : Base Media / Version 2
Codec ID                                 : mp42 (M4V /mp42/isom)
File size                                : 105 MiB
Duration                                 : 37mn 58s
Overall bit rate                         : 385 Kbps
Encoded date                             : UTC 2015-10-26 17:28:58
Tagged date                              : UTC 2015-10-26 17:28:58
Video
ID                                       : 1
Format                                   : AVC
Format/Info                              : Advanced Video Codec
Format profile                           : [email protected]
Format settings, CABAC                   : Yes
Format settings, ReFrames                : 4 frames
Codec ID                                 : avc1
Codec ID/Info                            : Advanced Video Coding
Duration                                 : 37mn 58s
Source duration                          : 37mn 58s
Bit rate                                 : 258 Kbps
Width                                    : 1 280 pixels
Height                                   : 720 pixels
Display aspect ratio                     : 16:9
Frame rate mode                          : Constant
Frame rate                               : 15.000 fps
Color space                              : YUV
Chroma subsampling                       : 4:2:0
Bit depth                                : 8 bits
Scan type                                : Progressive
Bits/(Pixel*Frame)                       : 0.019
Stream size                              : 70.1 MiB (67%)
Source stream size                       : 70.1 MiB (67%)
Language                                 : English
Encoded date                             : UTC 2015-10-26 17:28:58
Tagged date                              : UTC 2015-10-26 17:28:58
Color range                              : Limited
Color primaries                          : BT.709
Transfer characteristics                 : BT.709
Matrix coefficients                      : BT.709
mdhd_Duration                            : 2277887
Audio
ID                                       : 2
Format                                   : AAC
Format/Info                              : Advanced Audio Codec
Format profile                           : LC
Codec ID                                 : 40
Duration                                 : 37mn 58s
Source duration                          : 37mn 58s
Bit rate mode                            : Constant
Bit rate                                 : 125 Kbps
Channel(s)                               : 2 channels
Channel positions                        : Front: L R
Sampling rate                            : 44.1 KHz
Frame rate                               : 43.066 fps (1024 spf)
Compression mode                         : Lossy
Stream size                              : 34.0 MiB (33%)
Source stream size                       : 34.0 MiB (33%)
Language                                 : English
Encoded date                             : UTC 2015-10-26 17:28:58
Tagged date                              : UTC 2015-10-26 17:28:58
mdhd_Duration                            : 2276304
General
Complete name                            : C:\torrent\Joomla WFMS\disk 1\videokurs\part1\11.mp4
Format                                   : MPEG-4
Format profile                           : Base Media / Version 2
Codec ID                                 : mp42 (M4V /mp42/isom)
File size                                : 71.0 MiB
Duration                                 : 30mn 35s
Overall bit rate                         : 324 Kbps
Encoded date                             : UTC 2015-10-26 18:17:09
Tagged date                              : UTC 2015-10-26 18:17:09
Video
ID                                       : 1
Format                                   : AVC
Format/Info                              : Advanced Video Codec
Format profile                           : [email protected]
Format settings, CABAC                   : Yes
Format settings, ReFrames                : 4 frames
Codec ID                                 : avc1
Codec ID/Info                            : Advanced Video Coding
Duration                                 : 30mn 35s
Source duration                          : 30mn 36s
Bit rate                                 : 197 Kbps
Width                                    : 1 280 pixels
Height                                   : 720 pixels
Display aspect ratio                     : 16:9
Frame rate mode                          : Constant
Frame rate                               : 15.000 fps
Color space                              : YUV
Chroma subsampling                       : 4:2:0
Bit depth                                : 8 bits
Scan type                                : Progressive
Bits/(Pixel*Frame)                       : 0.014
Stream size                              : 43.1 MiB (61%)
Source stream size                       : 43.1 MiB (61%)
Language                                 : English
Encoded date                             : UTC 2015-10-26 18:17:09
Tagged date                              : UTC 2015-10-26 18:17:09
Color range                              : Limited
Color primaries                          : BT.709
Transfer characteristics                 : BT.709
Matrix coefficients                      : BT.709
mdhd_Duration                            : 1835728
Audio
ID                                       : 2
Format                                   : AAC
Format/Info                              : Advanced Audio Codec
Format profile                           : LC
Codec ID                                 : 40
Duration                                 : 30mn 35s
Source duration                          : 30mn 36s
Bit rate mode                            : Constant
Bit rate                                 : 125 Kbps
Channel(s)                               : 2 channels
Channel positions                        : Front: L R
Sampling rate                            : 44.1 KHz
Frame rate                               : 43.066 fps (1024 spf)
Compression mode                         : Lossy
Stream size                              : 27.4 MiB (39%)
Source stream size                       : 27.4 MiB (39%)
Language                                 : English
Encoded date                             : UTC 2015-10-26 18:17:09
Tagged date                              : UTC 2015-10-26 18:17:09
mdhd_Duration                            : 1834540
General
Complete name                            : C:\torrent\Joomla WFMS\disk 1\videokurs\part1\12.mp4
Format                                   : MPEG-4
Format profile                           : Base Media / Version 2
Codec ID                                 : mp42 (M4V /mp42/isom)
File size                                : 121 MiB
Duration                                 : 41mn 25s
Overall bit rate                         : 408 Kbps
Encoded date                             : UTC 2015-10-26 18:40:52
Tagged date                              : UTC 2015-10-26 18:40:52
Video
ID                                       : 1
Format                                   : AVC
Format/Info                              : Advanced Video Codec
Format profile                           : [email protected]
Format settings, CABAC                   : Yes
Format settings, ReFrames                : 4 frames
Codec ID                                 : avc1
Codec ID/Info                            : Advanced Video Coding
Duration                                 : 41mn 25s
Source duration                          : 41mn 25s
Bit rate                                 : 281 Kbps
Width                                    : 1 280 pixels
Height                                   : 720 pixels
Display aspect ratio                     : 16:9
Frame rate mode                          : Constant
Frame rate                               : 15.000 fps
Color space                              : YUV
Chroma subsampling                       : 4:2:0
Bit depth                                : 8 bits
Scan type                                : Progressive
Bits/(Pixel*Frame)                       : 0.020
Stream size                              : 83.1 MiB (69%)
Source stream size                       : 83.1 MiB (69%)
Language                                 : English
Encoded date                             : UTC 2015-10-26 18:40:52
Tagged date                              : UTC 2015-10-26 18:40:52
Color range                              : Limited
Color primaries                          : BT.709
Transfer characteristics                 : BT.709
Matrix coefficients                      : BT.709
mdhd_Duration                            : 2484836
Audio
ID                                       : 2
Format                                   : AAC
Format/Info                              : Advanced Audio Codec
Format profile                           : LC
Codec ID                                 : 40
Duration                                 : 41mn 25s
Source duration                          : 41mn 25s
Bit rate mode                            : Constant
Bit rate                                 : 125 Kbps
Channel(s)                               : 2 channels
Channel positions                        : Front: L R
Sampling rate                            : 44.1 KHz
Frame rate                               : 43.066 fps (1024 spf)
Compression mode                         : Lossy
Stream size                              : 37.1 MiB (31%)
Source stream size                       : 37.1 MiB (31%)
Language                                 : English
Encoded date                             : UTC 2015-10-26 18:40:52
Tagged date                              : UTC 2015-10-26 18:40:52
mdhd_Duration                            : 2483073
General
Complete name                            : C:\torrent\Joomla WFMS\disk 1\videokurs\part1\13.mp4
Format                                   : MPEG-4
Format profile                           : Base Media / Version 2
Codec ID                                 : mp42 (M4V /mp42/isom)
File size                                : 114 MiB
Duration                                 : 30mn 18s
Overall bit rate                         : 524 Kbps
Encoded date                             : UTC 2015-10-26 20:27:10
Tagged date                              : UTC 2015-10-26 20:27:10
Video
ID                                       : 1
Format                                   : AVC
Format/Info                              : Advanced Video Codec
Format profile                           : [email protected]
Format settings, CABAC                   : Yes
Format settings, ReFrames                : 4 frames
Codec ID                                 : avc1
Codec ID/Info                            : Advanced Video Coding
Duration                                 : 30mn 18s
Source duration                          : 30mn 18s
Bit rate                                 : 397 Kbps
Width                                    : 1 280 pixels
Height                                   : 720 pixels
Display aspect ratio                     : 16:9
Frame rate mode                          : Constant
Frame rate                               : 15.000 fps
Color space                              : YUV
Chroma subsampling                       : 4:2:0
Bit depth                                : 8 bits
Scan type                                : Progressive
Bits/(Pixel*Frame)                       : 0.029
Stream size                              : 86.1 MiB (76%)
Source stream size                       : 86.1 MiB (76%)
Language                                 : English
Encoded date                             : UTC 2015-10-26 20:27:10
Tagged date                              : UTC 2015-10-26 20:27:10
Color range                              : Limited
Color primaries                          : BT.709
Transfer characteristics                 : BT.709
Matrix coefficients                      : BT.709
mdhd_Duration                            : 1817932
Audio
ID                                       : 2
Format                                   : AAC
Format/Info                              : Advanced Audio Codec
Format profile                           : LC
Codec ID                                 : 40
Duration                                 : 30mn 18s
Source duration                          : 30mn 18s
Bit rate mode                            : Constant
Bit rate                                 : 125 Kbps
Channel(s)                               : 2 channels
Channel positions                        : Front: L R
Sampling rate                            : 44.1 KHz
Frame rate                               : 43.066 fps (1024 spf)
Compression mode                         : Lossy
Stream size                              : 27.2 MiB (24%)
Source stream size                       : 27.2 MiB (24%)
Language                                 : English
Encoded date                             : UTC 2015-10-26 20:27:10
Tagged date                              : UTC 2015-10-26 20:27:10
mdhd_Duration                            : 1816751
General
Complete name                            : C:\torrent\Joomla WFMS\disk 1\videokurs\part1\14.mp4
Format                                   : MPEG-4
Format profile                           : Base Media / Version 2
Codec ID                                 : mp42 (M4V /mp42/isom)
File size                                : 102 MiB
Duration                                 : 28mn 41s
Overall bit rate                         : 499 Kbps
Encoded date                             : UTC 2015-10-27 13:39:16
Tagged date                              : UTC 2015-10-27 13:39:16
Video
ID                                       : 1
Format                                   : AVC
Format/Info                              : Advanced Video Codec
Format profile                           : [email protected]
Format settings, CABAC                   : Yes
Format settings, ReFrames                : 4 frames
Codec ID                                 : avc1
Codec ID/Info                            : Advanced Video Coding
Duration                                 : 28mn 41s
Source duration                          : 28mn 41s
Bit rate                                 : 371 Kbps
Width                                    : 1 280 pixels
Height                                   : 720 pixels
Display aspect ratio                     : 16:9
Frame rate mode                          : Constant
Frame rate                               : 15.000 fps
Color space                              : YUV
Chroma subsampling                       : 4:2:0
Bit depth                                : 8 bits
Scan type                                : Progressive
Bits/(Pixel*Frame)                       : 0.027
Stream size                              : 76.2 MiB (74%)
Source stream size                       : 76.2 MiB (74%)
Language                                 : English
Encoded date                             : UTC 2015-10-27 13:39:16
Tagged date                              : UTC 2015-10-27 13:39:16
Color range                              : Limited
Color primaries                          : BT.709
Transfer characteristics                 : BT.709
Matrix coefficients                      : BT.709
mdhd_Duration                            : 1721622
Audio
ID                                       : 2
Format                                   : AAC
Format/Info                              : Advanced Audio Codec
Format profile                           : LC
Codec ID                                 : 40
Duration                                 : 28mn 41s
Source duration                          : 28mn 41s
Bit rate mode                            : Constant
Bit rate                                 : 125 Kbps
Channel(s)                               : 2 channels
Channel positions                        : Front: L R
Sampling rate                            : 44.1 KHz
Frame rate                               : 43.066 fps (1024 spf)
Compression mode                         : Lossy
Stream size                              : 25.7 MiB (25%)
Source stream size                       : 25.7 MiB (25%)
Language                                 : English
Encoded date                             : UTC 2015-10-27 13:39:16
Tagged date                              : UTC 2015-10-27 13:39:16
mdhd_Duration                            : 1720545
General
Complete name                            : C:\torrent\Joomla WFMS\disk 1\videokurs\part1\15.mp4
Format                                   : MPEG-4
Format profile                           : Base Media / Version 2
Codec ID                                 : mp42 (M4V /mp42/isom)
File size                                : 93.3 MiB
Duration                                 : 35mn 29s
Overall bit rate                         : 368 Kbps
Encoded date                             : UTC 2015-10-27 14:00:00
Tagged date                              : UTC 2015-10-27 14:00:00
Video
ID                                       : 1
Format                                   : AVC
Format/Info                              : Advanced Video Codec
Format profile                           : [email protected]
Format settings, CABAC                   : Yes
Format settings, ReFrames                : 4 frames
Codec ID                                 : avc1
Codec ID/Info                            : Advanced Video Coding
Duration                                 : 35mn 29s
Source duration                          : 35mn 29s
Bit rate                                 : 219 Kbps
Width                                    : 1 280 pixels
Height                                   : 720 pixels
Display aspect ratio                     : 16:9
Frame rate mode                          : Constant
Frame rate                               : 15.000 fps
Color space                              : YUV
Chroma subsampling                       : 4:2:0
Bit depth                                : 8 bits
Scan type                                : Progressive
Bits/(Pixel*Frame)                       : 0.016
Stream size                              : 55.5 MiB (60%)
Source stream size                       : 61.0 MiB (65%)
Language                                 : English
Encoded date                             : UTC 2015-10-27 14:00:00
Tagged date                              : UTC 2015-10-27 14:00:00
Color range                              : Limited
Color primaries                          : BT.709
Transfer characteristics                 : BT.709
Matrix coefficients                      : BT.709
mdhd_Duration                            : 2128723
Audio
ID                                       : 2
Format                                   : AAC
Format/Info                              : Advanced Audio Codec
Format profile                           : LC
Codec ID                                 : 40
Duration                                 : 35mn 29s
Source duration                          : 35mn 29s
Bit rate mode                            : Constant
Bit rate                                 : 125 Kbps
Channel(s)                               : 2 channels
Channel positions                        : Front: L R
Sampling rate                            : 44.1 KHz
Frame rate                               : 43.066 fps (1024 spf)
Compression mode                         : Lossy
Stream size                              : 31.8 MiB (34%)
Source stream size                       : 31.8 MiB (34%)
Language                                 : English
Encoded date                             : UTC 2015-10-27 14:00:00
Tagged date                              : UTC 2015-10-27 14:00:00
mdhd_Duration                            : 2127310
General
Complete name                            : C:\torrent\Joomla WFMS\disk 1\videokurs\part1\16.mp4
Format                                   : MPEG-4
Format profile                           : Base Media / Version 2
Codec ID                                 : mp42 (M4V /mp42/isom)
File size                                : 96.4 MiB
Duration                                 : 30mn 47s
Overall bit rate                         : 438 Kbps
Encoded date                             : UTC 2015-10-27 14:22:09
Tagged date                              : UTC 2015-10-27 14:22:09
Video
ID                                       : 1
Format                                   : AVC
Format/Info                              : Advanced Video Codec
Format profile                           : [email protected]
Format settings, CABAC                   : Yes
Format settings, ReFrames                : 4 frames
Codec ID                                 : avc1
Codec ID/Info                            : Advanced Video Coding
Duration                                 : 30mn 47s
Source duration                          : 30mn 47s
Bit rate                                 : 310 Kbps
Width                                    : 1 280 pixels
Height                                   : 720 pixels
Display aspect ratio                     : 16:9
Frame rate mode                          : Constant
Frame rate                               : 15.000 fps
Color space                              : YUV
Chroma subsampling                       : 4:2:0
Bit depth                                : 8 bits
Scan type                                : Progressive
Bits/(Pixel*Frame)                       : 0.022
Stream size                              : 68.3 MiB (71%)
Source stream size                       : 68.3 MiB (71%)
Language                                 : English
Encoded date                             : UTC 2015-10-27 14:22:09
Tagged date                              : UTC 2015-10-27 14:22:09
Color range                              : Limited
Color primaries                          : BT.709
Transfer characteristics                 : BT.709
Matrix coefficients                      : BT.709
mdhd_Duration                            : 1846992
Audio
ID                                       : 2
Format                                   : AAC
Format/Info                              : Advanced Audio Codec
Format profile                           : LC
Codec ID                                 : 40
Duration                                 : 30mn 47s
Source duration                          : 30mn 47s
Bit rate mode                            : Constant
Bit rate                                 : 125 Kbps
Channel(s)                               : 2 channels
Channel positions                        : Front: L R
Sampling rate                            : 44.1 KHz
Frame rate                               : 43.066 fps (1024 spf)
Compression mode                         : Lossy
Stream size                              : 27.6 MiB (29%)
Source stream size                       : 27.6 MiB (29%)
Language                                 : English
Encoded date                             : UTC 2015-10-27 14:22:09
Tagged date                              : UTC 2015-10-27 14:22:09
mdhd_Duration                            : 1845789
General
Complete name                            : C:\torrent\Joomla WFMS\disk 1\videokurs\part1\17.mp4
Format                                   : MPEG-4
Format profile                           : Base Media / Version 2
Codec ID                                 : mp42 (M4V /mp42/isom)
File size                                : 78.0 MiB
Duration                                 : 26mn 2s
Overall bit rate                         : 419 Kbps
Encoded date                             : UTC 2015-10-27 14:43:37
Tagged date                              : UTC 2015-10-27 14:43:37
Video
ID                                       : 1
Format                                   : AVC
Format/Info                              : Advanced Video Codec
Format profile                           : [email protected]
Format settings, CABAC                   : Yes
Format settings, ReFrames                : 4 frames
Codec ID                                 : avc1
Codec ID/Info                            : Advanced Video Coding
Duration                                 : 26mn 2s
Source duration                          : 26mn 2s
Bit rate                                 : 292 Kbps
Width                                    : 1 280 pixels
Height                                   : 720 pixels
Display aspect ratio                     : 16:9
Frame rate mode                          : Constant
Frame rate                               : 15.000 fps
Color space                              : YUV
Chroma subsampling                       : 4:2:0
Bit depth                                : 8 bits
Scan type                                : Progressive
Bits/(Pixel*Frame)                       : 0.021
Stream size                              : 54.3 MiB (70%)
Source stream size                       : 54.3 MiB (70%)
Language                                 : English
Encoded date                             : UTC 2015-10-27 14:43:37
Tagged date                              : UTC 2015-10-27 14:43:37
Color range                              : Limited
Color primaries                          : BT.709
Transfer characteristics                 : BT.709
Matrix coefficients                      : BT.709
mdhd_Duration                            : 1562528
Audio
ID                                       : 2
Format                                   : AAC
Format/Info                              : Advanced Audio Codec
Format profile                           : LC
Codec ID                                 : 40
Duration                                 : 26mn 2s
Source duration                          : 26mn 2s
Bit rate mode                            : Constant
Bit rate                                 : 125 Kbps
Channel(s)                               : 2 channels
Channel positions                        : Front: L R
Sampling rate                            : 44.1 KHz
Frame rate                               : 43.066 fps (1024 spf)
Compression mode                         : Lossy
Stream size                              : 23.3 MiB (30%)
Source stream size                       : 23.3 MiB (30%)
Language                                 : English
Encoded date                             : UTC 2015-10-27 14:43:37
Tagged date                              : UTC 2015-10-27 14:43:37
mdhd_Duration                            : 1561578
General
Complete name                            : C:\torrent\Joomla WFMS\disk 1\videokurs\part1\18.mp4
Format                                   : MPEG-4
Format profile                           : Base Media / Version 2
Codec ID                                 : mp42 (M4V /mp42/isom)
File size                                : 98.4 MiB
Duration                                 : 36mn 25s
Overall bit rate                         : 378 Kbps
Encoded date                             : UTC 2015-10-27 15:03:20
Tagged date                              : UTC 2015-10-27 15:03:20
Video
ID                                       : 1
Format                                   : AVC
Format/Info                              : Advanced Video Codec
Format profile                           : [email protected]
Format settings, CABAC                   : Yes
Format settings, ReFrames                : 4 frames
Codec ID                                 : avc1
Codec ID/Info                            : Advanced Video Coding
Duration                                 : 36mn 25s
Source duration                          : 36mn 25s
Bit rate                                 : 250 Kbps
Width                                    : 1 280 pixels
Height                                   : 720 pixels
Display aspect ratio                     : 16:9
Frame rate mode                          : Constant
Frame rate                               : 15.000 fps
Color space                              : YUV
Chroma subsampling                       : 4:2:0
Bit depth                                : 8 bits
Scan type                                : Progressive
Bits/(Pixel*Frame)                       : 0.018
Stream size                              : 65.2 MiB (66%)
Source stream size                       : 65.2 MiB (66%)
Language                                 : English
Encoded date                             : UTC 2015-10-27 15:03:20
Tagged date                              : UTC 2015-10-27 15:03:20
Color range                              : Limited
Color primaries                          : BT.709
Transfer characteristics                 : BT.709
Matrix coefficients                      : BT.709
mdhd_Duration                            : 2185443
Audio
ID                                       : 2
Format                                   : AAC
Format/Info                              : Advanced Audio Codec
Format profile                           : LC
Codec ID                                 : 40
Duration                                 : 36mn 25s
Source duration                          : 36mn 25s
Bit rate mode                            : Constant
Bit rate                                 : 125 Kbps
Channel(s)                               : 2 channels
Channel positions                        : Front: L R
Sampling rate                            : 44.1 KHz
Frame rate                               : 43.066 fps (1024 spf)
Compression mode                         : Lossy
Stream size                              : 32.7 MiB (33%)
Source stream size                       : 32.7 MiB (33%)
Language                                 : English
Encoded date                             : UTC 2015-10-27 15:03:20
Tagged date                              : UTC 2015-10-27 15:03:20
mdhd_Duration                            : 2183948
General
Complete name                            : C:\torrent\Joomla WFMS\disk 1\videokurs\part1\19.mp4
Format                                   : MPEG-4
Format profile                           : Base Media / Version 2
Codec ID                                 : mp42 (M4V /mp42/isom)
File size                                : 157 MiB
Duration                                 : 48mn 36s
Overall bit rate                         : 452 Kbps
Encoded date                             : UTC 2015-10-27 15:33:08
Tagged date                              : UTC 2015-10-27 15:33:08
Video
ID                                       : 1
Format                                   : AVC
Format/Info                              : Advanced Video Codec
Format profile                           : [email protected]
Format settings, CABAC                   : Yes
Format settings, ReFrames                : 4 frames
Codec ID                                 : avc1
Codec ID/Info                            : Advanced Video Coding
Duration                                 : 48mn 36s
Source duration                          : 48mn 36s
Bit rate                                 : 325 Kbps
Width                                    : 1 280 pixels
Height                                   : 720 pixels
Display aspect ratio                     : 16:9
Frame rate mode                          : Constant
Frame rate                               : 15.000 fps
Color space                              : YUV
Chroma subsampling                       : 4:2:0
Bit depth                                : 8 bits
Scan type                                : Progressive
Bits/(Pixel*Frame)                       : 0.023
Stream size                              : 113 MiB (72%)
Source stream size                       : 113 MiB (72%)
Language                                 : English
Encoded date                             : UTC 2015-10-27 15:33:08
Tagged date                              : UTC 2015-10-27 15:33:08
Color range                              : Limited
Color primaries                          : BT.709
Transfer characteristics                 : BT.709
Matrix coefficients                      : BT.709
mdhd_Duration                            : 2916064
Audio
ID                                       : 2
Format                                   : AAC
Format/Info                              : Advanced Audio Codec
Format profile                           : LC
Codec ID                                 : 40
Duration                                 : 48mn 36s
Source duration                          : 48mn 36s
Bit rate mode                            : Constant
Bit rate                                 : 126 Kbps
Channel(s)                               : 2 channels
Channel positions                        : Front: L R
Sampling rate                            : 44.1 KHz
Frame rate                               : 43.066 fps (1024 spf)
Compression mode                         : Lossy
Stream size                              : 43.6 MiB (28%)
Source stream size                       : 43.6 MiB (28%)
Language                                 : English
Encoded date                             : UTC 2015-10-27 15:33:08
Tagged date                              : UTC 2015-10-27 15:33:08
mdhd_Duration                            : 2913936
Скриншоты:

[Цитировать]

Спасибо!

[Цитировать]



Показать сообщения:    

Текущее время: 06-Дек 13:19

Часовой пояс: UTC + 3


Вы не можете начинать темы
Вы не можете отвечать на сообщения
Вы не можете редактировать свои сообщения
Вы не можете удалять свои сообщения
Вы не можете голосовать в опросах
Вы не можете прикреплять файлы к сообщениям
Вы не можете скачивать файлы

!ВНИМАНИЕ!
Сайт не предоставляет электронные версии произведений, а занимается лишь коллекционированием и каталогизацией ссылок, присылаемых и публикуемых на форуме нашими читателями. Если вы являетесь правообладателем какого-либо представленного материала и не желаете, чтобы ссылка на него находилась в нашем каталоге, свяжитесь с нами, и мы незамедлительно удалим ее. Файлы для обмена на трекере предоставлены пользователями сайта, и администрация не несет ответственности за их содержание. Просьба не заливать файлы, защищенные авторскими правами, а также файлы нелегального содержания!