[ Сегодня идет свободное скачивание без начисления Download ]


Статистика раздачи
Скачал: [ 1 ]
 
   
 
Top  
 
 
После прочтения сжечь / Burn After Reading Название: После прочтения сжечь
Оригинальное название: Burn After Reading
Год выхода: 2008
Жанр: комедия
Режиссер: Итан Коэн, Джоэл Коэн
В ролях: Джордж Клуни, Брэд Питт, Фрэнсис МакДорманд, Джон Малкович, Тильда Суинтон, Ричард Дженкинс, Элизабет Марвел, Дэвид Раш, Дж.К. Симмонс, Олек Крупа
О фильме:
Оззи, агента ЦРУ, уволили с поста начальника Балканского направления. Пытаясь преодолеть кризис, он берется за мемуары, содержащие в том числе и секретную информацию. И надо же было такому случиться, что диск с этими данными был потерян в раздевалке спортивного клуба.
Находка попадает в руки легкомысленного тренера Чеда и его не менее легкомысленной подруги Линды. Вместе они решают шантажировать бывшего агента, и начинается такая заварушка, в которой не сможет разобраться даже ЦРУ…

Страна: США, Великобритания, Франция
Студия: Focus Features, Relativity Media, Studio Canal, Working Title Films
Продолжительность: 01:35:56
Перевод: Профессиональный (дублированный) Blu-ray CEE + Профессиональный (многоголосый, закадровый) + Авторский (одноголосый, закадровый) Д.Есарев + Авторский (одноголосый, закадровый) А.Гаврилов + Авторский (одноголосый, закадровый) Ю.Сербин + Авторский (одноголосый, закадровый) К.Филонов + Профессиональный (двухголосый, закадровый) 1+1
Формат: Matroska
Видео: 1280x694 at 23.976 fps, [email protected], ~11500 kbps avg
Аудио#1: Russian: 48 kHz, DTS, 3/2 (L,C,R,l,r) + LFE ch, ~755.00 kbps avg |Дубляж, Blu-ray CEE|
Аудио#2: Russian: 48 kHz, AC3, 3/2 (L,C,R,l,r) + LFE ch, ~448.00 kbps avg |Многоголосый закадровый|
Аудио#3: Russian: 48 kHz, AC3, 3/2 (L,C,R,l,r) + LFE ch, ~640.00 kbps avg |Авторский, Д.Есарев|
Аудио#4: Russian: 48 kHz, AC3, 3/2 (L,C,R,l,r) + LFE ch, ~640.00 kbps avg |Авторский, А.Гаврилов|
Аудио#5: Russian: 48 kHz, AC3, 3/2 (L,C,R,l,r) + LFE ch, ~640.00 kbps avg |Авторский, Ю.Сербин|
Аудио#6: Russian: 48 kHz, AC3, 3/2 (L,C,R,l,r) + LFE ch, ~448.00 kbps avg |Авторский, К.Филонов|
Аудио#7: Ukrainian: 48 kHz, AC3, 3/2 (L,C,R,l,r) + LFE ch, ~384.00 kbps avg |Двухголосый закадровый, 1+1|
Аудио#8: English: 48 kHz, AC3, 3/2 (L,C,R,l,r) + LFE ch, ~640.00 kbps avg
Субтитры: Russian, English
***Сохранены оригинальные главы как на Blu-ray.
***Внимание! В аудио#2 присутствует ненормативная лексика!
***Перевод Д.Есарева доступен благодаря: 7654, Wa1ker, shandorra, napaHouk, xavier, Start.Point, Epiphone_the_beard, Dickman, RafL, Ananerbe, igrok2012, Gambler, potroks. Работа со звуком: Переводман.
***Автор рипа: potroks.

Знаете ли Вы, что...

Фильма «Знакомство с Дейзи» с Клэр Дэйнс и Дермот Малруни, которую Линда, сначала с Аланом потом с Гарри смотрят в кинотеатре, не существует. Он был придуман специально для фильма.
Хотя дом агента ЦРУ находится в Джорджтауне (Вашингтон, округ Колумбия), съёмки сцен фильма проходили на Бруклинских Высотах, так как Итан Коэн и Джоэл Коэн хотели оставаться в Нью-Йорке, чтобы быть со своей семьёй.
Это первый фильм Итана Коэна и Джоэла Коэна, начиная с фильма «Перекрёсток Миллера» (1990), в котором оператор не Роджер Дикинс. Его заменяет Эммануэль Любецки.
Съёмки начались в августе 2007 года и закончились в начале ноября 2007.
Слово «Fuck» употребляется в фильме 60 раз.
Когда герой Брэда Питта впервые встречается с героем Джона Малковича, он просит называть его «Мистером Блэком». Это сознательный реверанс фильму «Знакомьтесь, Джо Блэк» (1998), смазливость героя которого Питт высмеивал тут.
В вступительной сцене Осборн Кокс, когда входит в кабинет Палмера, останавливается перед креслом. В следующем кадре, когда камера снимает со стороны двери, он уже стоит за креслом. Когда камера снова снимает со стороны Палмера, он снова стоит перед креслом.
В фильме присутствует ляп. В сцене в Российском посольстве, портрет российского президента Б. Н. Ельцина на стене кабинета меняется на портрет президента В. В. Путина.

MI

Общее
Уникальный идентификатор : 254639208986455609219485728707876415683 (0xBF91BA4E7E3AC7BC9F07DA2F365AE8C3)
Полное имя : Posle.Prochteniya.Szhech.2008.6xRus.Ukr.Eng.BDRip.720p.-HELLYWOOD.mkv
Формат : Matroska
Версия формата : Version 4 / Version 2
Размер файла : 10,8 Гбайт
Продолжительность : 1 ч. 35 м.
Общий поток : 16,1 Мбит/сек
Название фильма : Burn After Reading (2008)
Дата кодирования : UTC 2016-05-07 13:26:07
Программа кодирования : mkvmerge v5.9.0 ('On The Loose') built on Dec 15 2012 16:39:58
Библиотека кодирования : libebml v1.3.0 + libmatroska v1.4.0
Видео
Идентификатор : 1
Формат : AVC
Формат/Информация : Advanced Video Codec
Профиль формата : [email protected]
Параметр CABAC формата : Да
Параметр ReFrames формата : 9 кадров
Идентификатор кодека : V_MPEG4/ISO/AVC
Продолжительность : 1 ч. 35 м.
Битрейт : 11,5 Мбит/сек
Ширина : 1280 пикселей
Высота : 694 пикселя
Соотношение сторон : 1,85:1
Режим частоты кадров : Постоянный
Частота кадров : 23,976 кадра/сек
Цветовое пространство : YUV
Субдискретизация насыщенности : 4:2:0
Битовая глубина : 8 бит
Тип развёртки : Прогрессивная
Бит/(Пиксели*Кадры) : 0.542
Размер потока : 7,52 Гбайт (70%)
Заголовок : potroks
Библиотека кодирования : x264 core 146 r2538 121396c
Настройки программы : cabac=1 / ref=9 / deblock=1:-3:-3 / analyse=0x3:0x113 / me=umh / subme=11 / psy=1 / psy_rd=1.00:0.05 / mixed_ref=1 / me_range=48 / chroma_me=1 / trellis=2 / 8x8dct=1 / cqm=0 / deadzone=21,11 / fast_pskip=0 / chroma_qp_offset=-3 / threads=9 / lookahead_threads=2 / sliced_threads=0 / nr=0 / decimate=0 / interlaced=0 / bluray_compat=0 / constrained_intra=0 / bframes=11 / b_pyramid=2 / b_adapt=2 / b_bias=0 / direct=3 / weightb=1 / open_gop=0 / weightp=2 / keyint=240 / keyint_min=23 / scenecut=40 / intra_refresh=0 / rc_lookahead=60 / rc=2pass / mbtree=0 / bitrate=11549 / ratetol=1.0 / qcomp=0.70 / qpmin=0 / qpmax=69 / qpstep=4 / cplxblur=20.0 / qblur=0.5 / vbv_maxrate=14000 / vbv_bufsize=14000 / nal_hrd=none / filler=0 / ip_ratio=1.40 / pb_ratio=1.30 / aq=1:0.80
Язык : English
Default : Да
Forced : Нет
Аудио #1
Идентификатор : 2
Формат : DTS
Формат/Информация : Digital Theater Systems
Режим : 16
Параметр Endianness формата : Big
Идентификатор кодека : A_DTS
Продолжительность : 1 ч. 35 м.
Вид битрейта : Постоянный
Битрейт : 755 Кбит/сек
Каналы : 6 каналов
Расположение каналов : Front: L C R, Side: L R, LFE
Частота : 48,0 КГц
Битовая глубина : 24 бит
Метод сжатия : С потерями
Размер потока : 518 Мбайт (5%)
Заголовок : Dub | DTS 5.1 @ 768 kbps - Blu-ray CEE
Язык : Russian
Default : Да
Forced : Нет
Аудио #2
Идентификатор : 3
Формат : AC-3
Формат/Информация : Audio Coding 3
Расширение режима : CM (complete main)
Параметр Endianness формата : Big
Идентификатор кодека : A_AC3
Продолжительность : 1 ч. 35 м.
Вид битрейта : Постоянный
Битрейт : 448 Кбит/сек
Каналы : 6 каналов
Расположение каналов : Front: L C R, Side: L R, LFE
Частота : 48,0 КГц
Метод сжатия : С потерями
Размер потока : 307 Мбайт (3%)
Заголовок : MVO | DD 5.1 @ 448 kbps [Uncensored]
Язык : Russian
Default : Нет
Forced : Нет
Аудио #3
Идентификатор : 4
Формат : AC-3
Формат/Информация : Audio Coding 3
Расширение режима : CM (complete main)
Параметр Endianness формата : Big
Идентификатор кодека : A_AC3
Продолжительность : 1 ч. 35 м.
Вид битрейта : Постоянный
Битрейт : 640 Кбит/сек
Каналы : 6 каналов
Расположение каналов : Front: L C R, Side: L R, LFE
Частота : 48,0 КГц
Метод сжатия : С потерями
Размер потока : 439 Мбайт (4%)
Заголовок : AVO | DD 5.1 @ 640 kbps - D.Yesarev
Язык : Russian
Default : Нет
Forced : Нет
Аудио #4
Идентификатор : 5
Формат : AC-3
Формат/Информация : Audio Coding 3
Расширение режима : CM (complete main)
Параметр Endianness формата : Big
Идентификатор кодека : A_AC3
Продолжительность : 1 ч. 35 м.
Вид битрейта : Постоянный
Битрейт : 640 Кбит/сек
Каналы : 6 каналов
Расположение каналов : Front: L C R, Side: L R, LFE
Частота : 48,0 КГц
Метод сжатия : С потерями
Размер потока : 439 Мбайт (4%)
Заголовок : AVO | DD 5.1 @ 640 kbps - A.Gavrilov
Язык : Russian
Default : Нет
Forced : Нет
Аудио #5
Идентификатор : 6
Формат : AC-3
Формат/Информация : Audio Coding 3
Расширение режима : CM (complete main)
Параметр Endianness формата : Big
Идентификатор кодека : A_AC3
Продолжительность : 1 ч. 35 м.
Вид битрейта : Постоянный
Битрейт : 640 Кбит/сек
Каналы : 6 каналов
Расположение каналов : Front: L C R, Side: L R, LFE
Частота : 48,0 КГц
Метод сжатия : С потерями
Размер потока : 439 Мбайт (4%)
Заголовок : AVO | DD 5.1 @ 640 kbps - Yu.Serbin
Язык : Russian
Default : Нет
Forced : Нет
Аудио #6
Идентификатор : 7
Формат : AC-3
Формат/Информация : Audio Coding 3
Расширение режима : CM (complete main)
Параметр Endianness формата : Big
Идентификатор кодека : A_AC3
Продолжительность : 1 ч. 35 м.
Вид битрейта : Постоянный
Битрейт : 448 Кбит/сек
Каналы : 6 каналов
Расположение каналов : Front: L C R, Side: L R, LFE
Частота : 48,0 КГц
Метод сжатия : С потерями
Размер потока : 307 Мбайт (3%)
Заголовок : AVO | DD 5.1 @ 448 kbps - K.Filonov
Язык : Russian
Default : Нет
Forced : Нет
Аудио #7
Идентификатор : 8
Формат : AC-3
Формат/Информация : Audio Coding 3
Расширение режима : CM (complete main)
Параметр Endianness формата : Big
Идентификатор кодека : A_AC3
Продолжительность : 1 ч. 35 м.
Вид битрейта : Постоянный
Битрейт : 384 Кбит/сек
Каналы : 6 каналов
Расположение каналов : Front: L C R, Side: L R, LFE
Частота : 48,0 КГц
Метод сжатия : С потерями
Размер потока : 264 Мбайт (2%)
Заголовок : DVO | DD 5.1 @ 384 kbps - 1+1
Язык : Ukrainian
Default : Нет
Forced : Нет
Аудио #8
Идентификатор : 9
Формат : AC-3
Формат/Информация : Audio Coding 3
Расширение режима : CM (complete main)
Параметр Endianness формата : Big
Идентификатор кодека : A_AC3
Продолжительность : 1 ч. 35 м.
Вид битрейта : Постоянный
Битрейт : 640 Кбит/сек
Каналы : 6 каналов
Расположение каналов : Front: L C R, Side: L R, LFE
Частота : 48,0 КГц
Метод сжатия : С потерями
Размер потока : 439 Мбайт (4%)
Заголовок : Original | DD 5.1 @ 640 kbps
Язык : English
Default : Нет
Forced : Нет
Текст #1
Идентификатор : 10
Формат : UTF-8
Идентификатор кодека : S_TEXT/UTF8
Идентификатор кодека/Информация : UTF-8 Plain Text
Язык : Russian
Default : Нет
Forced : Нет
Текст #2
Идентификатор : 11
Формат : UTF-8
Идентификатор кодека : S_TEXT/UTF8
Идентификатор кодека/Информация : UTF-8 Plain Text
Язык : English
Default : Нет
Forced : Нет
Меню
00:00:00.000 : en:(01)00:00:00:000
00:03:58.112 : en:(02)00:03:58:112
00:08:11.908 : en:(03)00:08:11:908
00:15:04.904 : en:(04)00:15:04:904
00:20:53.543 : en:(05)00:20:53:543
00:25:34.824 : en:(06)00:25:34:824
00:30:50.515 : en:(07)00:30:50:515
00:37:20.321 : en:(08)00:37:20:321
00:43:02.371 : en:(09)00:43:02:371
00:46:25.657 : en:(10)00:46:25:657
00:49:37.975 : en:(11)00:49:37:975
00:53:28.538 : en:(12)00:53:28:538
00:56:04.778 : en:(13)00:56:04:778
01:00:22.535 : en:(14)01:00:22:535
01:05:22.460 : en:(15)01:05:22:460
01:11:01.465 : en:(16)01:11:01:465
01:16:04.768 : en:(17)01:16:04:768
01:21:37.058 : en:(18)01:21:37:058
01:28:04.862 : en:(19)01:28:04:862
01:30:57.493 : en:(20)01:30:57:493
01:35:56.125 : en:(21)01:35:56:125

Скриншоты


[Цитировать]



Показать сообщения:    

Текущее время: 06-Дек 05:59

Часовой пояс: UTC + 3


Вы не можете начинать темы
Вы не можете отвечать на сообщения
Вы не можете редактировать свои сообщения
Вы не можете удалять свои сообщения
Вы не можете голосовать в опросах
Вы не можете прикреплять файлы к сообщениям
Вы не можете скачивать файлы

!ВНИМАНИЕ!
Сайт не предоставляет электронные версии произведений, а занимается лишь коллекционированием и каталогизацией ссылок, присылаемых и публикуемых на форуме нашими читателями. Если вы являетесь правообладателем какого-либо представленного материала и не желаете, чтобы ссылка на него находилась в нашем каталоге, свяжитесь с нами, и мы незамедлительно удалим ее. Файлы для обмена на трекере предоставлены пользователями сайта, и администрация не несет ответственности за их содержание. Просьба не заливать файлы, защищенные авторскими правами, а также файлы нелегального содержания!