[ Сегодня идет свободное скачивание без начисления Download ]


Статистика раздачи
Нет
 
   
 
Top  
 
 
- Первый мститель: Противостояние / Captain America: Civil War (2016) TC - Производство: США, Marvel Entertainment, Marvel Studios, Studio Babelsberg
Жанр: Фантастика, Боевик, Приключения
Режиссер: Энтони Руссо, Джо Руссо
Продюсер: Кевин Файги, Виктория Алонсо, Митчелл Белл
Актеры: Крис Эванс, Роберт Дауни мл., Скарлетт Йоханссон, Себастьян Стэн, Энтони Маки, Дон Чидл, Джереми Реннер, Чедвик Боузман, Пол Беттани, Элизабет Олсен
Описание:
Мстители под руководством Капитана Америки оказываются участниками разрушительного инцидента, имеющего международный масштаб. Эти события заставляют правительство задуматься над тем, чтобы начать регулировать действия всех людей с особыми способностями, введя «Акт о регистрации супергероев», вынуждая их раскрыть свои личности и работать на правительственные службы.
Видя в этом законе нарушение гражданских прав и плевок во всё, что он верит, Стив Роджерс открыто восстаёт против нового режима, ведя за собой группу героев, поддерживающих его мнение. В свою же очередь, Тони Старк видит правильность в новом законе, и становится во главе героев, поддерживающих его. Всё это приводит к неизбежному расколу Мстителей

Возраст: 16+ (зрителям, достигшим 16 лет)
Рейтинг MPAA: PG-13 (детям до 13 лет просмотр нежелателен)
Дата мировой премьеры: 12 апреля 2016
Дата российской премьеры: 5 мая 2016, «WDSSPR»
Дата выхода DVD/Blu-ray релиза: 2 августа 2016, «Уолт Дисней Компани СНГ»
Продолжительность: 02:26:32
Качество видео: TC (Звук с CamRip) Сэмпл
Перевод: Дублированный
Субтитры: Отсутствуют
Реклама: Присутствуют голосовые и текстовые вставки рекламы.
Видео: MPEG4, XviD, 720x320 (2.25:1), 29.970 fps, 1 794 Kbps (0.260 bit/pixel)
Аудио: AC-3, 48.0 KHz, 2 ch, 192 Kbps, CBR

Mediainfo:

Формат                                   : AVI
Формат/Информация                        : Audio Video Interleave
Профиль формата                          : OpenDML
Размер файла                             : 2,05 Гбайт
Продолжительность                        : 2 ч. 26 м.
Общий поток                              : 2001 Кбит/сек
Программа кодирования                    : VirtualDubMod 1.5.10.2 (build 2540/release)
Библиотека кодирования                   : VirtualDubMod build 2540/release
Видео
Идентификатор                            : 0
Формат                                   : MPEG-4 Visual
Профиль формата                          : Advanced Simple@L5
Параметр BVOP формата                    : 2
Параметр QPel формата                    : Нет
Параметр GMC формата                     : Без точки перехода
Параметр матрицы формата                 : Выборочная
Идентификатор кодека                     : XVID
Идентификатор кодека/Подсказка           : XviD
Продолжительность                        : 2 ч. 26 м.
Битрейт                                  : 1794 Кбит/сек
Ширина                                   : 720 пикселей
Высота                                   : 320 пикселей
Соотношение сторон                       : 2,25:1
Частота кадров                           : 29,970 кадров/сек
Цветовое пространство                    : YUV
Субдискретизация насыщенности            : 4:2:0
Битовая глубина                          : 8 бит
Тип развёртки                            : Прогрессивная
Метод сжатия                             : С потерями
Бит/(Пиксели*Кадры)                      : 0.260
Размер потока                            : 1,84 Гбайт (90%)
Библиотека кодирования                   : XviD 1.2.1 (UTC 2008-12-04)
Аудио
Идентификатор                            : 1
Формат                                   : AC-3
Формат/Информация                        : Audio Coding 3
Расширение режима                        : CM (complete main)
Параметр Endianness формата              : Big
Идентификатор кодека                     : 2000
Продолжительность                        : 2 ч. 26 м.
Вид битрейта                             : Постоянный
Битрейт                                  : 192 Кбит/сек
Каналы                                   : 2 канала
Расположение каналов                     : Front: L R
Частота                                  : 48,0 КГц
Битовая глубина                          : 16 бит
Метод сжатия                             : С потерями
Размер потока                            : 202 Мбайт (10%)
Выравнивание                             : Разделение по промежуткам
Продолжительность промежутка             : 33  мс. (1,00 видеокадр)
Время предзагрузки промежутка            : 500  мс.
Скриншоты:

[Цитировать]



Показать сообщения:    

Текущее время: 07-Дек 17:29

Часовой пояс: UTC + 3


Вы не можете начинать темы
Вы не можете отвечать на сообщения
Вы не можете редактировать свои сообщения
Вы не можете удалять свои сообщения
Вы не можете голосовать в опросах
Вы не можете прикреплять файлы к сообщениям
Вы не можете скачивать файлы

!ВНИМАНИЕ!
Сайт не предоставляет электронные версии произведений, а занимается лишь коллекционированием и каталогизацией ссылок, присылаемых и публикуемых на форуме нашими читателями. Если вы являетесь правообладателем какого-либо представленного материала и не желаете, чтобы ссылка на него находилась в нашем каталоге, свяжитесь с нами, и мы незамедлительно удалим ее. Файлы для обмена на трекере предоставлены пользователями сайта, и администрация не несет ответственности за их содержание. Просьба не заливать файлы, защищенные авторскими правами, а также файлы нелегального содержания!