[ Сегодня идет свободное скачивание без начисления Download ]


Статистика раздачи
Нет
 
   
 
Top  
 
 
36 ступеней Шаолиня / Shao Lin san shi liu fang
«The Kung Fu Classic That Started It All!»
Год выпуска: 1978
Страна: Гонконг
Производство: Shaw Brothers
Жанр: боевик, драма, приключения
Режиссер: Лю Чя-Лян
В ролях: Джа Хуи Лью, Лье Ло, Чиа Юнг Лью, Норман Чу, Юнг Генри Ю, Джон Чунг, Уилсон Тонг, Hang-Sheng Wu, Юе Вонг, Танг Ква Нгай
Перевод: Профессиональный (двухголосый) +Авторский (одноголосый (Кузнецов))
Субтитры: Отсутствуют
Описание: В Кантоне вспыхивает восстание против манчжурской династии Цин. Школьник по имени Сан Те помогает повстанцам. Манчжуры жестоко подавляют восстание, и Сан Те вынужден бежать в храм Шаолинь, где он начинает обучение боевым искусствам, мечтая о мести…

[imdb]tt0078243[/imdb]
Качество: BDRip 720p
Продолжительность: 01:56:09
Формат: MKV
Видео кодек: AVC
Аудио кодек: AC3
Видео: 1280x544(2.35:1), 23,976 fps, Advanced Video Codec ~4300 Kbps avg, 0.258 bit/pixel
Аудио №1: 48 kHz, Audio Coding 3, 2 channels, ~192 Kbps avg [Russian,DVO]
Аудио №2: 48 kHz, Audio Coding 3, 2 channels, ~192 Kbps avg [Russian,AVO Кузнецов]
Премьера (мир): 2 февраля 1978

Media Info

General
Unique ID                      : 251662576251198604965682691645184037186 (0xBD5472FB636B7F478AFE059C65C65142)
Complete name                  : D:\TORRENT\36.stupenej.Shaolinja.1978.x264.BDRip.720p.mkv
Format                         : Matroska
Format version                 : Version 2
File size                      : 3.80 GiB
Duration                       : 1h 56mn
Overall bit rate               : 4 685 Kbps
Movie name                     : Ruslan19780
Encoded date                   : UTC 2012-12-03 06:43:13
Writing application            : mkvmerge v5.7.0 ('The Whirlwind') built on Jul  8 2012 20:08:51
Writing library                : libebml v1.2.3 + libmatroska v1.3.0
Video
ID                             : 1
Format                         : AVC
Format/Info                    : Advanced Video Codec
Format profile                 : High@L4.1
Format settings, CABAC         : Yes
Format settings, ReFrames      : 8 frames
Muxing mode                    : Header stripping
Codec ID                       : V_MPEG4/ISO/AVC
Duration                       : 1h 56mn
Bit rate                       : 4 300 Kbps
Width                          : 1 280 pixels
Height                         : 544 pixels
Display aspect ratio           : 2.35:1
Frame rate                     : 23.976 fps
Color space                    : YUV
Chroma subsampling             : 4:2:0
Bit depth                      : 8 bits
Scan type                      : Progressive
Bits/(Pixel*Frame)             : 0.258
Stream size                    : 3.41 GiB (90%)
Writing library                : x264 core 116 r2074 2641b9e
Encoding settings              : cabac=1 / ref=8 / deblock=1:-2:-2 / analyse=0x3:0x133 / me=umh / subme=9 / psy=1 / psy_rd=1.00:0.15 / mixed_ref=1 / me_range=24 / chroma_me=1 / trellis=2 / 8x8dct=1 / cqm=0 / deadzone=21,11 / fast_pskip=1 / chroma_qp_offset=-3 / threads=6 / sliced_threads=0 / nr=0 / decimate=1 / interlaced=0 / bluray_compat=0 / constrained_intra=0 / bframes=6 / b_pyramid=2 / b_adapt=2 / b_bias=0 / direct=3 / weightb=1 / open_gop=0 / weightp=2 / keyint=250 / keyint_min=23 / scenecut=40 / intra_refresh=0 / rc_lookahead=60 / rc=2pass / mbtree=1 / bitrate=4300 / ratetol=1.0 / qcomp=0.60 / qpmin=10 / qpmax=51 / qpstep=4 / cplxblur=20.0 / qblur=0.5 / ip_ratio=1.40 / aq=1:1.00
Language                       : English
Default                        : Yes
Forced                         : No
Audio #1
ID                             : 2
Format                         : AC-3
Format/Info                    : Audio Coding 3
Mode extension                 : CM (complete main)
Format settings, Endianness    : Big
Muxing mode                    : Header stripping
Codec ID                       : A_AC3
Duration                       : 1h 56mn
Bit rate mode                  : Constant
Bit rate                       : 192 Kbps
Channel(s)                     : 2 channels
Channel positions              : Front: L R
Sampling rate                  : 48.0 KHz
Bit depth                      : 16 bits
Compression mode               : Lossy
Stream size                    : 159 MiB (4%)
Title                          : DVO
Language                       : Russian
Default                        : Yes
Forced                         : No
Audio #2
ID                             : 3
Format                         : AC-3
Format/Info                    : Audio Coding 3
Mode extension                 : CM (complete main)
Format settings, Endianness    : Big
Muxing mode                    : Header stripping
Codec ID                       : A_AC3
Duration                       : 1h 56mn
Bit rate mode                  : Constant
Bit rate                       : 192 Kbps
Channel(s)                     : 2 channels
Channel positions              : Front: L R
Sampling rate                  : 48.0 KHz
Bit depth                      : 16 bits
Compression mode               : Lossy
Stream size                    : 159 MiB (4%)
Title                          : AVO Кузнецов
Language                       : Russian
Default                        : No
Forced                         : No

[Цитировать]



Показать сообщения:    

Текущее время: 23-Май 13:06

Часовой пояс: UTC + 6


Вы не можете начинать темы
Вы не можете отвечать на сообщения
Вы не можете редактировать свои сообщения
Вы не можете удалять свои сообщения
Вы не можете голосовать в опросах
Вы не можете прикреплять файлы к сообщениям
Вы не можете скачивать файлы

!ВНИМАНИЕ!
Сайт не предоставляет электронные версии произведений, а занимается лишь коллекционированием и каталогизацией ссылок, присылаемых и публикуемых на форуме нашими читателями. Если вы являетесь правообладателем какого-либо представленного материала и не желаете, чтобы ссылка на него находилась в нашем каталоге, свяжитесь с нами, и мы незамедлительно удалим ее. Файлы для обмена на трекере предоставлены пользователями сайта, и администрация не несет ответственности за их содержание. Просьба не заливать файлы, защищенные авторскими правами, а также файлы нелегального содержания!