[ Сегодня идет свободное скачивание без начисления Download ]


Статистика раздачи
Нет
 
   
 
Top  
 
 
Маша и Медведь. Машкины страшилки [01x01-12] (2014-2016) Информация о фильме
Название: Маша и Медведь. Машкины страшилки
Год выхода: 2014-2016
Жанр: Мультсериал, детский, приключения, комедия
Страна: Россия
Студия: Студия "Анимаккорд"
Продолжительность: 12 x ~ 00:05:41
Перевод: не требуется
Режиссер: Олег Ужинов, Денис Червяцов, Олег Кузовков
В ролях: Алина Кукушкина
О фильме:
Новый проект студии "Анимаккорд" - "Машкины страшилки"... Все дети боятся темноты. Маша раньше тоже так её боялась, что приходилось ей по ночам с фонариком сидеть! Но однажды Маша придумала сказочку про маленького лесного жучка, который тоже боялся темноты... Трепещите! Маша взялась за новый жанр - теперь она рассказывает страшилки!

Содержание

01. Душераздирающая повесть о тёмном лесе и маленьком жучке.
02. Жутко-страшное предание о том, как один мальчик боялся умываться.
03. Чудовищная быль о том, как некоторые боятся чудовищ
04. Тревожный сказ о потерявшемся котёнке
05. Кошмарное поверие о новогодних стишках
06. Мрачная притча о суеверной девочке
07. Угрюмый завет о сопливом мальчике
08. О Девочке, которая боялась зверушек
09. Ужасающая история про бабушку и внучка
10. Полный отчаяния миф об исторической ошибке
11. Панически невыносимая легенда о букашках
12. Тревожный сказ про Бабку-Ёжку
Файл
Формат: MKV
Качество: WEB-DL 720p
Видео: MPEG-4 AVC, [email protected], 1280x720 (16:9), ~ 3 930 kbps, 25,000 fps
Звук: 48.0 KHz, AC3 2.0, 192 kbps
Субтитры: нет

MI

10. Полный отчаяния миф об исторической ошибке. WEB-DL.720p.x264.-merci-.mkv
Format : Matroska
Format version : Version 2
File size : 171 MiB
Duration : 5mn 40s
Overall bit rate : 4 206 Kbps
Movie name : Машкины Страшилки / 2014-2015 / Россия. "Анимаккорд"
Encoded date : UTC 2016-01-30 15:52:47
Writing application : mkvmerge v5.8.0 ('No Sleep / Pillow') built on Sep 2 2012 15:37:04
Writing library : libebml v1.2.3 + libmatroska v1.3.0
Video
ID : 1
Format : AVC
Format/Info : Advanced Video Codec
Format profile : [email protected]
Format settings, CABAC : Yes
Format settings, ReFrames : 2 frames
Codec ID : V_MPEG4/ISO/AVC
Duration : 5mn 40s
Bit rate : 3 930 Kbps
Width : 1 280 pixels
Height : 720 pixels
Display aspect ratio : 16:9
Frame rate mode : Constant
Frame rate : 25.000 fps
Color space : YUV
Chroma subsampling : 4:2:0
Bit depth : 8 bits
Scan type : Progressive
Bits/(Pixel*Frame) : 0.171
Stream size : 159 MiB (93%)
Title : 10. Полный отчаяния миф об исторической ошибке. WEB-DL.720p.x264.-merci-
Language : Russian
Default : Yes
Forced : No
Color range : Limited
Color primaries : BT.709
Transfer characteristics : BT.709
Matrix coefficients : BT.709
Audio
ID : 2
Format : AC-3
Format/Info : Audio Coding 3
Mode extension : CM (complete main)
Format settings, Endianness : Big
Codec ID : A_AC3
Duration : 5mn 40s
Bit rate mode : Constant
Bit rate : 192 Kbps
Channel(s) : 2 channels
Channel positions : Front: L R
Sampling rate : 48.0 KHz
Compression mode : Lossy
Stream size : 7.79 MiB (5%)
Title : rus
Language : Russian
Default : Yes
Forced : No

Скриншоты

Внимание! Раздача ведётся путём добавления новых серий!

Внимание! Раздача ведётся путём добавления новых серий; при каждом добавлении создfётся новый торрент. Чтобы начать докачку новой серии, пользователям необходимо сделать следующее: (1) остановить скачивание, (2) удалить старый торрент у себя из клиента (старые серии удалять не надо), (3) скачать новый торрент и запустить его у себя в клиенте вместо старого, при этом указать клиенту путь в старую папку куда и должно происходить скачивание новых серий.
Ваш клиент при этом должен произвести хеширование (проверку) старой папки (если не производит сам - помогите ему сделать это), и будет докачивать только те серии которых у вас ещё нет. Старые серии при этом не удаляются, а продолжают раздаваться!
Eсли вы уже удалили старые серии, то предотвратить повторную закачку старых серий можно, отжав галочку в соответсвующих местах при запуске нового торрента.
Добавил эпизод:
+ 12 - 09.05.2016

[Цитировать]



Показать сообщения:    

Текущее время: 06-Дек 05:55

Часовой пояс: UTC + 3


Вы не можете начинать темы
Вы не можете отвечать на сообщения
Вы не можете редактировать свои сообщения
Вы не можете удалять свои сообщения
Вы не можете голосовать в опросах
Вы не можете прикреплять файлы к сообщениям
Вы не можете скачивать файлы

!ВНИМАНИЕ!
Сайт не предоставляет электронные версии произведений, а занимается лишь коллекционированием и каталогизацией ссылок, присылаемых и публикуемых на форуме нашими читателями. Если вы являетесь правообладателем какого-либо представленного материала и не желаете, чтобы ссылка на него находилась в нашем каталоге, свяжитесь с нами, и мы незамедлительно удалим ее. Файлы для обмена на трекере предоставлены пользователями сайта, и администрация не несет ответственности за их содержание. Просьба не заливать файлы, защищенные авторскими правами, а также файлы нелегального содержания!