[ Сегодня идет свободное скачивание без начисления Download ]


Статистика раздачи
Нет
 
   
 
 
 
Выбор / The Choice
Информация о фильме
Название: Выбор
Оригинальное название: The Choice
Год выхода: 2016
Жанр: Драма, мелодрама
Режиссер: Росс Кац
В ролях: Александра Даддарио, Тереза Палмер, Мэгги Грэйс, Бенджамин Уокер, Том Уэллинг, Том Уилкинсон, Брэд Джеймс, Анна Энгер, Бретт Райс, Вилбур Фицджералд
О фильме:
Любовь? Серьезные отношения? Ответственность? Семья? Закоренелый холостяк Тревис Паркер считает, что все это не для него. У него есть отличная работа и верные друзья. Он увлекается охотой, рыбалкой, занимается экстремальными видами спорта — и избегает серьезных отношений. Но не родился еще на свет человек, которому удалось бы уйти от настоящей любви… Когда в доме по соседству поселяется тихая, замкнутая Габи, жизнь Тревиса меняется.

Страна: США
Студия: Nicholas Sparks Productions, Safran Company
Продолжительность: 01:51:07
Перевод: Любительский многоголосый (закадровый) | RecentFilms
Файл
Кодек: MPEG-4
Качество: BDRip 720p
Видео: 1920x1080, 33.3 Mbit/s, 23.976 fps
Звук:
Аудио #01: 48 kHz, AC3, 2.0, 192 Kbps | Любительский многоголосый (закадровый), RecentFilms |
Аудио #02: 48 kHz, DTS-HD MA, 5.1, 3840 kbps | Оригинал |
Субтитры: Английские

Тех. инфо

Общее
Уникальный идентификатор : 252020296945496008566878718568071547422 (0xBD9957F951E3515E9F6869E32F89CA1E)
Полное имя : G:VideoThe.Choice.2016.BDREMUX.1080p.ExKinoRay.mkv
Формат : Matroska
Версия формата : Version 4 / Version 2
Размер файла : 29,0 Гбайт
Продолжительность : 1 ч. 51 м.
Режим общего битрейта : Переменный
Общий поток : 37,3 Мбит/сек
Название фильма : The.Choice.2016.BDREMUX.1080p.ExKinoRay
Дата кодирования : UTC 2016-05-10 14:27:14
Программа кодирования : mkvmerge v8.3.0 ('Over the Horizon') 64bit
Библиотека кодирования : libebml v1.3.1 + libmatroska v1.4.2
Видео
Идентификатор : 1
Формат : AVC
Формат/Информация : Advanced Video Codec
Профиль формата : High@L4.1
Параметр CABAC формата : Да
Параметр ReFrames формата : 4 кадра
Идентификатор кодека : V_MPEG4/ISO/AVC
Продолжительность : 1 ч. 51 м.
Вид битрейта : Переменный
Битрейт : 33,3 Мбит/сек
Максимальный битрейт : 37,0 Мбит/сек
Ширина : 1920 пикселей
Высота : 1080 пикселей
Соотношение сторон : 16:9
Режим частоты кадров : Постоянный
Частота кадров : 23,976 (24000/1001) кадра/сек
Цветовое пространство : YUV
Субдискретизация насыщенности : 4:2:0
Битовая глубина : 8 бит
Тип развёртки : Прогрессивная
Бит/(Пиксели*Кадры) : 0.669
Размер потока : 25,8 Гбайт (89%)
Заголовок : The.Choice.2016.BDREMUX.1080p.ExKinoRay.***селезень***
Язык : English
Default : Нет
Forced : Нет
Аудио #1
Идентификатор : 2
Формат : AC-3
Формат/Информация : Audio Coding 3
Расширение режима : CM (complete main)
Параметр Endianness формата : Big
Идентификатор кодека : A_AC3
Продолжительность : 1 ч. 51 м.
Вид битрейта : Постоянный
Битрейт : 192 Кбит/сек
Каналы : 2 канала
Расположение каналов : Front: L R
Частота : 48,0 КГц
Частота кадров : 31,250 кадров/сек (1536 spf)
Метод сжатия : С потерями
Размер потока : 153 Мбайт (1%)
Заголовок : MVO [RecentFilms]
Язык : Russian
Default : Да
Forced : Нет
Аудио #2
Идентификатор : 3
Формат : DTS
Формат/Информация : Digital Theater Systems
Профиль формата : MA / Core
Режим : 16
Параметр Endianness формата : Big
Идентификатор кодека : A_DTS
Продолжительность : 1 ч. 51 м.
Вид битрейта : Переменный / Постоянный
Битрейт : 3840 Кбит/сек / 1509 Кбит/сек
Каналы : 6 каналов
Расположение каналов : Front: L C R, Side: L R, LFE
Частота : 48,0 КГц
Частота кадров : 93,750 кадра/сек (512 spf)
Битовая глубина : 24 бит
Метод сжатия : Без потерь / Lossy
Размер потока : 3,01 Гбайт (10%)
Язык : English
Default : Нет
Forced : Нет
Текст
Идентификатор : 4
Формат : UTF-8
Идентификатор кодека : S_TEXT/UTF8
Идентификатор кодека/Информация : UTF-8 Plain Text
Продолжительность : 1 ч. 49 м.
Битрейт : 63 бит/сек
Count of elements : 1648
Размер потока : 51,0 Кбайт (0%)
Язык : English
Default : Нет
Forced : Нет
Меню
00:00:00.000 : en:Chapter 01
00:04:37.110 : en:Chapter 02
00:12:09.353 : en:Chapter 03
00:20:26.975 : en:Chapter 04
00:27:49.042 : en:Chapter 05
00:34:24.395 : en:Chapter 06
00:40:54.076 : en:Chapter 07
00:47:25.050 : en:Chapter 08
00:54:27.639 : en:Chapter 09
00:58:57.992 : en:Chapter 10
01:06:32.238 : en:Chapter 11
01:14:04.106 : en:Chapter 12
01:20:10.013 : en:Chapter 13
01:28:19.043 : en:Chapter 14
01:35:19.547 : en:Chapter 15
01:40:33.068 : en:Chapter 16

[Цитировать]

Топик был перенесен из форума Новинки кинопроката (HD Video) в форум Новинки кинопроката Blu-Ray & BDRemux
Viktor1952



Показать сообщения:    

Текущее время: 11-Дек 13:01

Часовой пояс: UTC + 3


Вы не можете начинать темы
Вы не можете отвечать на сообщения
Вы не можете редактировать свои сообщения
Вы не можете удалять свои сообщения
Вы не можете голосовать в опросах
Вы не можете прикреплять файлы к сообщениям
Вы не можете скачивать файлы

!ВНИМАНИЕ!
Сайт не предоставляет электронные версии произведений, а занимается лишь коллекционированием и каталогизацией ссылок, присылаемых и публикуемых на форуме нашими читателями. Если вы являетесь правообладателем какого-либо представленного материала и не желаете, чтобы ссылка на него находилась в нашем каталоге, свяжитесь с нами, и мы незамедлительно удалим ее. Файлы для обмена на трекере предоставлены пользователями сайта, и администрация не несет ответственности за их содержание. Просьба не заливать файлы, защищенные авторскими правами, а также файлы нелегального содержания!