[ Сегодня идет свободное скачивание без начисления Download ]


Статистика раздачи
Нет
 
   
 
Top  
 
 
Влюбись в меня, если осмелишься / Jeux d'enfants
«Ты в игре?»
Русское название: Влюбись в меня, если осмелишься
Оригинальное название: Jeux d'enfants
Год выпуска: 2003
Жанр: драма, мелодрама
Выпущено: Франция, Бельгия
Режиссер: Ян Самюэль
В ролях: Гийом Кане , Марион Котийяр , Тибо Верхак , Жозефин Леба-Жоли , Эммануэль Грёнвольд , Жерар Уоткинс , Жиль Леллуш , Жюлия Фор , Литиция Венеция Тарновска , Элоди Наварр , Натали Натье , Робер Виллар
Перевод: Дублированный

Сюжет фильма:
Судьба свела их не зря: вдвоем они составили странную, но гармоничную пару. Они родились великими выдумщиками, такими, от которых стонала школа. Их проделки можно было бы осудить и окрестить их закоренелыми хулиганами, если бы эти двое не были просто маленькими детьми.
Они придумали игру, такую, которую могли придумать только они, игру «осмелишься - не осмелишься». Они брали друг друга «на слабо». Игра росла вместе с ними, и однажды они стали взрослыми. Все изменилось, но они уже не могли отличить игру от жизни, потому что игра была их жизнью. Никто не хотел уступать. Они шутили и смеялись, они делали друг другу больно, они страдали и теряли годы...
Они знали, что любят друг друга, они произносили эти слова, но игра возвращалась, не позволяя им стать просто мужчиной и женщиной... Однажды изменилось и это...

Качество: BDRip 1080p
Формат: AVC (библиотека кодирования x.264)
Контейнер (Расширение): MKV
Видео: 1920x1008, 11471 Кбит/сек, 25 кадр/сек, 0,237 Бит/[Пиксели*Кадры]
Аудио №1: русский / AC3 / 5.1 / 48 kHz / 448 kbps / |Дублированный|
Аудио №2: французский / AC3 / 5.1 / 48 kHz / 384 kbps /
Субтитры: русские
Навигация по главам(Чаптеры): есть
Продолжительность: 01:30:19

MediaInfo

Format : Matroska
Format version : Version 2
File size : 7.76 GiB
Duration : 1h 30mn
Overall bit rate : 12.3 Mbps
Movie name : Vljubis' v menja, esli osmelish'sja.(2003).BDRip.1080p.[denis100]
Encoded date : UTC 2016-05-10 07:44:24
Writing application : mkvmerge v5.8.0 ('No Sleep / Pillow') built on Sep 2 2012 15:37:04
Writing library : libebml v1.2.3 + libmatroska v1.3.0
Video
ID : 1
Format : AVC
Format/Info : Advanced Video Codec
Format profile : High@L4.1
Format settings, CABAC : Yes
Format settings, ReFrames : 4 frames
Codec ID : V_MPEG4/ISO/AVC
Duration : 1h 30mn
Bit rate : 11.5 Mbps
Width : 1 920 pixels
Height : 1 008 pixels
Display aspect ratio : 1.905
Frame rate : 25.000 fps
Color space : YUV
Chroma subsampling : 4:2:0
Bit depth : 8 bits
Scan type : Progressive
Bits/(Pixel*Frame) : 0.237
Stream size : 7.08 GiB (91%)
Title : Vljubis' v menja, esli osmelish'sja.(2003).BDRip.1080p.[denis100]
Writing library : x264 core 148 r2692 64f4e24
Encoding settings : cabac=1 / ref=4 / deblock=1:-3:-3 / analyse=0x3:0x133 / me=umh / subme=11 / psy=1 / psy_rd=1.00:0.15 / mixed_ref=1 / me_range=48 / chroma_me=1 / trellis=2 / 8x8dct=1 / cqm=0 / deadzone=21,11 / fast_pskip=0 / chroma_qp_offset=-3 / threads=6 / lookahead_threads=1 / sliced_threads=0 / nr=0 / decimate=1 / interlaced=0 / bluray_compat=0 / constrained_intra=0 / bframes=11 / b_pyramid=2 / b_adapt=2 / b_bias=0 / direct=3 / weightb=1 / open_gop=0 / weightp=2 / keyint=250 / keyint_min=25 / scenecut=40 / intra_refresh=0 / rc=2pass / mbtree=0 / bitrate=11471 / ratetol=1.0 / qcomp=0.60 / qpmin=0 / qpmax=69 / qpstep=4 / cplxblur=20.0 / qblur=0.5 / ip_ratio=1.40 / pb_ratio=1.30 / aq=2:0.70
Language : English
Default : Yes
Forced : No
Audio #1
ID : 2
Format : AC-3
Format/Info : Audio Coding 3
Mode extension : CM (complete main)
Codec ID : A_AC3
Duration : 1h 30mn
Bit rate mode : Constant
Bit rate : 448 Kbps
Channel(s) : 6 channels
Channel positions : Front: L C R, Side: L R, LFE
Sampling rate : 48.0 KHz
Bit depth : 16 bits
Compression mode : Lossy
Stream size : 289 MiB (4%)
Title : Дублированный
Language : Russian
Default : Yes
Forced : No
Audio #2
ID : 3
Format : AC-3
Format/Info : Audio Coding 3
Mode extension : CM (complete main)
Codec ID : A_AC3
Duration : 1h 30mn
Bit rate mode : Constant
Bit rate : 384 Kbps
Channel(s) : 6 channels
Channel positions : Front: L C R, Side: L R, LFE
Sampling rate : 48.0 KHz
Bit depth : 16 bits
Compression mode : Lossy
Stream size : 248 MiB (3%)
Language : French
Default : No
Forced : No
Text
ID : 4
Format : UTF-8
Codec ID : S_TEXT/UTF8
Codec ID/Info : UTF-8 Plain Text
Language : Russian
Default : No
Forced : No
Menu
00:00:00.000 : :Chapter 01
00:05:00.000 : :Chapter 02
00:10:00.000 : :Chapter 03
00:15:00.000 : :Chapter 04
00:20:00.000 : :Chapter 05
00:25:00.000 : :Chapter 06
00:30:00.000 : :Chapter 07
00:35:00.000 : :Chapter 08
00:40:00.000 : :Chapter 09
00:45:00.000 : :Chapter 10
00:50:00.000 : :Chapter 11
00:55:00.000 : :Chapter 12
01:00:00.000 : :Chapter 13
01:05:00.000 : :Chapter 14
01:10:00.000 : :Chapter 15
01:15:00.000 : :Chapter 16
01:20:00.000 : :Chapter 17
01:25:00.000 : :Chapter 18
01:30:00.000 : :Chapter 19

x264

x264 [info]: frame I:856 Avg QP:16.40 size:165035
x264 [info]: frame P:32407 Avg QP:18.92 size: 85632
x264 [info]: frame B:102212 Avg QP:20.97 size: 47475

Скриншоты

[Цитировать]



Показать сообщения:    

Текущее время: 11-Дек 05:20

Часовой пояс: UTC + 3


Вы не можете начинать темы
Вы не можете отвечать на сообщения
Вы не можете редактировать свои сообщения
Вы не можете удалять свои сообщения
Вы не можете голосовать в опросах
Вы не можете прикреплять файлы к сообщениям
Вы не можете скачивать файлы

!ВНИМАНИЕ!
Сайт не предоставляет электронные версии произведений, а занимается лишь коллекционированием и каталогизацией ссылок, присылаемых и публикуемых на форуме нашими читателями. Если вы являетесь правообладателем какого-либо представленного материала и не желаете, чтобы ссылка на него находилась в нашем каталоге, свяжитесь с нами, и мы незамедлительно удалим ее. Файлы для обмена на трекере предоставлены пользователями сайта, и администрация не несет ответственности за их содержание. Просьба не заливать файлы, защищенные авторскими правами, а также файлы нелегального содержания!