[ Сегодня идет свободное скачивание без начисления Download ]


Статистика раздачи
Нет
 
   
 
Top  
 
 
Настоящее преступление / True CrimeСтрана: США
Производство: Warner Bros. Pictures, The Zanuck Company, Malpaso Productions
Год выпуска: 1999
Жанр: триллер, драма, криминал, детектив
Продолжительность: 02:08:08
Режиссер: Клинт Иствуд
Авторы сценария: Ларри Гросс, Пол Брикман, Стивен Шифф
В ролях: Клинт Иствуд, Исайя Вашингтон, Лиза Гэй Хэмилтон, Джеймс Вудс, Дэнис Лири, Бернард Хилл, Дайан Венора, Майкл МакКин
Описание: Тертый жизнью репортер Стив Эверетт на первый взгляд не вызывает симпатий. Он — пьяница, бабник, сквернословит, не слишком заботливый отец. Однако, когда Стив понимает, что молодой парень, которого должны казнить через 12 часов, не виноват, он не раздумывая идет на риск, чтобы предотвратить настоящее преступление...

Перевод: Профессиональный (многоголосый) | Варус Видео + Авторский (одноголосый) | Юрий Живов + Украинский (многоголосый)
Субтитры: русские, английские (full + SDH)
Качество: BDRip 1080p
Формат: МКV
Видео кодек: AVC
Аудио кодек: АС3 | DTS
Видео: 1920x1080 (16:9), 23.976 fps, MPEG-4 AVC ~19,2 Мbps avg, 0.386 bit/pixel
Аудио №1: 48.0 kHz, AC3 Dolby Digital, 2/0 (L,R) ch, ~192 kbps | Варус Видео
Аудио №2: 48.0 kHz, Digital Theater Systems, 3/2 (L,C,R,l,r) + LFE ch, ~1509 kbps | Юрий Живов
Аудио №3: 48.0 kHz, AC3 Dolby Digital, 2/0 (L,R) ch, ~192 kbps | UKR / MVO
Аудио №4: 48.0 kHz, Digital Theater Systems, 3/2 (L,C,R,l,r) + LFE ch, ~1509 kbps | ENG
Формат субтитров: UTF-8 Plain Text
Дата премьеры (мир): 19 марта 1999

Тех. инфо

Общее
Unique ID : 214794715732102785037261117558428712822 (0xA197F51E39D23B63B29C173A52D6BF76)
Complete name : True.Crime.1999.1080p.BluRay.2xRus.Eng.mkv
Format : Matroska
Format version : Version 2
File size : 20,5 Гбайт
Duration : 2 ч. 7 м.
Overall bit rate : 23,1 Мбит/сек
Movie name : True Crime 1999 igrok2012
Encoded date : UTC 2016-05-09 14:47:23
Writing application : mkvmerge v8.3.0 ('Over the Horizon') 64bit
Writing library : libebml v1.3.1 + libmatroska v1.4.2
Cover : Yes
Attachments : cover.jpg
Видео
ID : 1
Format : AVC
Format/Info : Advanced Video Codec
Format profile : High@L4.1
Format settings, CABAC : Да
Format settings, ReFrames : 4 кадра
Codec ID : V_MPEG4/ISO/AVC
Duration : 2 ч. 7 м.
Bit rate : 19,2 Мбит/сек
Width : 1920 пикселей
Height : 1080 пикселей
Display aspect ratio : 16:9
Frame rate mode : Постоянный
Frame rate : 23,976 (24000/1001) кадра/сек
Color space : YUV
Chroma subsampling : 4:2:0
Bit depth : 8 бит
Scan type : Прогрессивная
Bits/(Pixel*Frame) : 0.386
Stream size : 17,1 Гбайт (83%)
Title : Encode by DON
Writing library : x264 core 148 r2692+54 69a6f49 t_mod_Custom [8-bit@all X86_64]
Encoding settings : cabac=1 / ref=4 / deblock=1:-3:-3 / analyse=0x3:0x133 / me=umh / subme=10 / psy=1 / fade_compensate=0.00 / psy_rd=1.00:0.00 / mixed_ref=1 / me_range=32 / chroma_me=1 / trellis=2 / 8x8dct=1 / cqm=0 / deadzone=21,11 / fast_pskip=0 / chroma_qp_offset=-2 / threads=12 / lookahead_threads=2 / sliced_threads=0 / nr=0 / decimate=1 / interlaced=0 / bluray_compat=0 / constrained_intra=0 / fgo=4 / bframes=9 / b_pyramid=2 / b_adapt=2 / b_bias=0 / direct=3 / weightb=1 / open_gop=0 / weightp=2 / keyint=250 / keyint_min=23 / scenecut=40 / intra_refresh=0 / rc=crf / mbtree=0 / crf=18.0000 / qcomp=0.60 / qpmin=0:0:0 / qpmax=69:69:69 / qpstep=4 / ip_ratio=1.40 / pb_ratio=1.20 / aq=3:0.50 / aq-sensitivity=10.00 / aq-factor=1.00:1.00:1.00 / aq2=1:0.50 / aq2-sensitivity=15.00 / aq2-factor=1.00:1.00:1.00 / aq3=0 / zones=177340,183265,crf=20
Language : English
Default : Да
Forced : Нет
Аудио #1
ID : 2
Format : AC-3
Format/Info : Audio Coding 3
Mode extension : CM (complete main)
Format settings, Endianness : Big
Codec ID : A_AC3
Duration : 2 ч. 7 м.
Bit rate mode : Постоянный
Bit rate : 192 Кбит/сек
Channel(s) : 2 канала
Channel positions : Front: L R
Sampling rate : 48,0 КГц
Frame rate : 31,250 кадров/сек (1536 spf)
Compression mode : С потерями
Stream size : 175 Мбайт (1%)
Title : Многоголосый закадровый, Варус Видео
Language : Russian
Default : Да
Forced : Нет
Аудио #2
ID : 3
Format : DTS
Format/Info : Digital Theater Systems
Mode : 16
Format settings, Endianness : Big
Codec ID : A_DTS
Duration : 2 ч. 7 м.
Bit rate mode : Постоянный
Bit rate : 1509 Кбит/сек
Channel(s) : 6 каналов
Channel positions : Front: L C R, Side: L R, LFE
Sampling rate : 48,0 КГц
Frame rate : 93,750 кадра/сек (512 spf)
Bit depth : 24 бит
Compression mode : С потерями
Stream size : 1,34 Гбайт (7%)
Title : Одноголосый закадровый, Ю.Живов
Language : Russian
Default : Нет
Forced : Нет
Аудио #3
ID : 4
Format : AC-3
Format/Info : Audio Coding 3
Mode extension : CM (complete main)
Format settings, Endianness : Big
Codec ID : A_AC3
Duration : 2 ч. 7 м.
Bit rate mode : Постоянный
Bit rate : 192 Кбит/сек
Channel(s) : 2 канала
Channel positions : Front: L R
Sampling rate : 48,0 КГц
Frame rate : 31,250 кадров/сек (1536 spf)
Compression mode : С потерями
Stream size : 175 Мбайт (1%)
Title : Многоголосый закадровый
Language : Ukrainian
Default : Нет
Forced : Нет
Аудио #4
ID : 5
Format : DTS
Format/Info : Digital Theater Systems
Mode : 16
Format settings, Endianness : Big
Codec ID : A_DTS
Duration : 2 ч. 7 м.
Bit rate mode : Постоянный
Bit rate : 1509 Кбит/сек
Channel(s) : 6 каналов
Channel positions : Front: L C R, Side: L R, LFE
Sampling rate : 48,0 КГц
Frame rate : 93,750 кадра/сек (512 spf)
Bit depth : 24 бит
Compression mode : С потерями
Stream size : 1,34 Гбайт (7%)
Language : English
Default : Нет
Forced : Нет
Текст #1
ID : 6
Format : UTF-8
Codec ID : S_TEXT/UTF8
Codec ID/Info : UTF-8 Plain Text
Language : Russian
Default : Нет
Forced : Нет
Текст #2
ID : 7
Format : UTF-8
Codec ID : S_TEXT/UTF8
Codec ID/Info : UTF-8 Plain Text
Language : English
Default : Нет
Forced : Нет
Текст #3
ID : 8
Format : UTF-8
Codec ID : S_TEXT/UTF8
Codec ID/Info : UTF-8 Plain Text
Title : SDH
Language : English
Default : Нет
Forced : Нет
Меню
00:00:00.000 : en:00:00:00.000
00:01:28.255 : en:00:01:28.255
00:04:08.457 : en:00:04:08.457
00:05:31.873 : en:00:05:31.873
00:09:59.140 : en:00:09:59.140
00:13:11.165 : en:00:13:11.165
00:17:02.730 : en:00:17:02.730
00:18:19.807 : en:00:18:19.807
00:23:57.811 : en:00:23:57.811
00:29:23.637 : en:00:29:23.637
00:32:47.048 : en:00:32:47.048
00:35:07.314 : en:00:35:07.314
00:38:54.874 : en:00:38:54.874
00:41:43.710 : en:00:41:43.710
00:48:16.102 : en:00:48:16.102
00:52:35.027 : en:00:52:35.027
00:53:58.277 : en:00:53:58.277
00:57:04.171 : en:00:57:04.171
01:00:12.818 : en:01:00:12.818
01:02:20.946 : en:01:02:20.946
01:05:26.798 : en:01:05:26.798
01:10:33.604 : en:01:10:33.604
01:15:29.608 : en:01:15:29.608
01:17:08.374 : en:01:17:08.374
01:19:51.996 : en:01:19:51.996
01:22:23.313 : en:01:22:23.313
01:25:53.899 : en:01:25:53.899
01:29:47.424 : en:01:29:47.424
01:32:08.898 : en:01:32:08.898
01:36:17.647 : en:01:36:17.647
01:43:28.911 : en:01:43:28.911
01:44:39.982 : en:01:44:39.982
01:47:56.345 : en:01:47:56.345
01:50:07.643 : en:01:50:07.643
01:52:47.678 : en:01:52:47.678
01:54:57.599 : en:01:54:57.599
01:58:40.989 : en:01:58:40.989
02:00:16.960 : en:02:00:16.960
02:02:05.401 : en:02:02:05.401

[Цитировать]



Показать сообщения:    

Текущее время: 09-Дек 02:55

Часовой пояс: UTC + 3


Вы не можете начинать темы
Вы не можете отвечать на сообщения
Вы не можете редактировать свои сообщения
Вы не можете удалять свои сообщения
Вы не можете голосовать в опросах
Вы не можете прикреплять файлы к сообщениям
Вы не можете скачивать файлы

!ВНИМАНИЕ!
Сайт не предоставляет электронные версии произведений, а занимается лишь коллекционированием и каталогизацией ссылок, присылаемых и публикуемых на форуме нашими читателями. Если вы являетесь правообладателем какого-либо представленного материала и не желаете, чтобы ссылка на него находилась в нашем каталоге, свяжитесь с нами, и мы незамедлительно удалим ее. Файлы для обмена на трекере предоставлены пользователями сайта, и администрация не несет ответственности за их содержание. Просьба не заливать файлы, защищенные авторскими правами, а также файлы нелегального содержания!