[ Сегодня идет свободное скачивание без начисления Download ]


Статистика раздачи
Скачал: [ 1 ]
 
   
 
Top  
 
 
Информация о фильме
Название: Физрук
Год выхода: 2016
Жанр: Комедия
Режиссер: Фёдор Стуков, Сергей Сенцов
В ролях: Дмитрий Нагиев, Александр Гордон, Полина Гренц, Анастасия Панина, Владимир Сычев, Даниил Вахрушев, Андрей Крыжний, Артур Сопельник, Оксана Сидоренко, Карина Мишулина
О фильме:
«Физрук 3 сезон» начинается с того, что с Фомы сняты все обвинения. Оказавшись на свободе, он видит, что жизнь его друзей изменилась: у Психа кризис среднего возраста, Таня строит новые отношения, а Мамаева, лишившись бизнеса отца, сводит концы с концами. Но физрук умеет решать проблемы. Фоме предстоит вернуть «отжатый» бизнес Саше как законной наследнице, завоевать Татьяну, и решить вопрос с гангстабоссом Леной, на стороне которой деньги, связи и армия головорезов. Зато в арсенале Фомы надежная команда, новая невероятная схема, в которой замешаны школа, Татьяна Александровна, друг детства и духовный наставник Миша по кличке «Буддист» и даже президент России. Все вместе они отправятся на поиски истины, счастья и справедливости. У них на всех всего одно заветное желание, и компаньоны уверены, что оно обязательно сбудется.
Страна: Россия, ТНТ
Продолжительность: 21 x ~ 00:25:00
Перевод: не требуется
Файл
Кодек: x264
Качество: SATRip-AVC
Видео: MPEG-4 AVC, ~ 1900 Кбит/с, [email protected]
Звук: AC3, 2 ch, 192 Кбит/с

Медиа-Инфо

x264 [info]: frame I:380 Avg QP:16.46 size: 41973
x264 [info]: frame P:7289 Avg QP:17.74 size: 21599
x264 [info]: frame B:27876 Avg QP:19.79 size: 6349
====================================================================
Общее
Уникальный идентификатор : 247706918836176428195629708308970994541 (0xBA5A9E038FD386E8B5A7385168FFFB6D)
Полное имя : R:МОИ РИПЫФизрук_2016-SATRip-AVC�1.Физрук.mkv
Формат : Matroska
Версия формата : Version 2
Размер файла : 367 Мбайт
Продолжительность : 23 м.
Общий поток : 2165 Кбит/сек
Дата кодирования : UTC 2016-04-09 17:40:49
Программа кодирования : mkvmerge v5.8.0 ('No Sleep / Pillow') built on Sep 2 2012 15:37:04
Библиотека кодирования : libebml v1.2.3 + libmatroska v1.3.0
Видео
Идентификатор : 1
Формат : AVC
Формат/Информация : Advanced Video Codec
Профиль формата : [email protected]
Параметр CABAC формата : Да
Параметр ReFrames формата : 15 кадров
Идентификатор кодека : V_MPEG4/ISO/AVC
Продолжительность : 23 м.
Битрейт : 1930 Кбит/сек
Ширина : 720 пикселей
Высота : 432 пикселя
Соотношение сторон : 16:9
Режим частоты кадров : Постоянный
Частота кадров : 25,000 кадров/сек
Цветовое пространство : YUV
Субдискретизация насыщенности : 4:2:0
Битовая глубина : 8 бит
Тип развёртки : Прогрессивная
Бит/(Пиксели*Кадры) : 0.248
Размер потока : 327 Мбайт (89%)
Библиотека кодирования : x264 core 148 r2638 7599210
Настройки программы : cabac=1 / ref=15 / deblock=1:-2:-2 / analyse=0x3:0x133 / me=umh / subme=10 / psy=1 / psy_rd=1.02:0.10 / mixed_ref=1 / me_range=32 / chroma_me=1 / trellis=2 / 8x8dct=1 / cqm=0 / deadzone=21,11 / fast_pskip=1 / chroma_qp_offset=-3 / threads=12 / lookahead_threads=2 / sliced_threads=0 / nr=0 / decimate=1 / interlaced=0 / bluray_compat=0 / constrained_intra=0 / bframes=8 / b_pyramid=2 / b_adapt=2 / b_bias=0 / direct=1 / weightb=1 / open_gop=0 / weightp=2 / keyint=250 / keyint_min=25 / scenecut=40 / intra_refresh=0 / rc=crf / mbtree=0 / crf=17.2 / qcomp=0.60 / qpmin=0 / qpmax=39 / qpstep=4 / ip_ratio=1.40 / pb_ratio=1.30 / aq=1:1.00
Язык : English
Default : Да
Forced : Нет
Цветовой диапазон : Limited
Основные цвета : BT.601 PAL
Характеристики трансфера : BT.470 System B, BT.470 System G
Коэффициенты матрицы : BT.601
Аудио
Идентификатор : 2
Формат : AC-3
Формат/Информация : Audio Coding 3
Расширение режима : CM (complete main)
Параметр Endianness формата : Big
Идентификатор кодека : A_AC3
Продолжительность : 23 м.
Вид битрейта : Постоянный
Битрейт : 192 Кбит/сек
Каналы : 2 канала
Расположение каналов : Front: L R
Частота : 48,0 КГц
Метод сжатия : С потерями
Задержка видео : 13 мс.
Размер потока : 32,5 Мбайт (9%)
Язык : Russian
Default : Да
Forced : Нет

[Цитировать]

Топик был перенесен из форума Отечественные сериалы HD в форум Отечественные сериалы
Viktor1952



Показать сообщения:    

Текущее время: 05-Дек 05:34

Часовой пояс: UTC + 3


Вы не можете начинать темы
Вы не можете отвечать на сообщения
Вы не можете редактировать свои сообщения
Вы не можете удалять свои сообщения
Вы не можете голосовать в опросах
Вы не можете прикреплять файлы к сообщениям
Вы не можете скачивать файлы

!ВНИМАНИЕ!
Сайт не предоставляет электронные версии произведений, а занимается лишь коллекционированием и каталогизацией ссылок, присылаемых и публикуемых на форуме нашими читателями. Если вы являетесь правообладателем какого-либо представленного материала и не желаете, чтобы ссылка на него находилась в нашем каталоге, свяжитесь с нами, и мы незамедлительно удалим ее. Файлы для обмена на трекере предоставлены пользователями сайта, и администрация не несет ответственности за их содержание. Просьба не заливать файлы, защищенные авторскими правами, а также файлы нелегального содержания!