[ Сегодня идет свободное скачивание без начисления Download ]


Статистика раздачи
Нет
 
   
 
Top  
 
 
[sh]Интервью с убийцей / Interview with a Hitman[/sh]
[sh]»[/sh] Год выпуска: 2012
[sh]»[/sh] Страна: Великобритания
[sh]»[/sh] Производство: Kirlian Pictures, Northern Film and Media, Northstar Ventures, Scanner-Rhodes Productions
[sh]»[/sh] Жанр: боевик, триллер
[sh]»[/sh] Режиссер: Перри Брандал
[sh]»[/sh] В ролях: Люк Госс, Каролин Тилетт, Стивен Маркус, Молли Хэрмон, Бранко Томович, Адриан Буше, Рэй Пантаки, Филип Уитчёрч, Дермот Кини, Патрик Листе
[sh]»[/sh] Перевод: Любительский (одноголосый, закадровый) + Оригинал |ENG|
[sh]»[/sh] Субтитры: Отсутствуют
[sh]»[/sh] Описание: Не доверяй никому! Ничего не чувствуй! Никогда не проигрывай! Эти три правила помогли Виктору достичь вершины карьеры и стать элитным наемным убийцей. Но однажды те, кто обычно делал заказ ему, получили заказ на него и Виктор вынужден бежать из страны, инсценировав свою смерть. Его путь лежит на родину — в Румынию, где живут люди, которые хотят убить его.

[sh]»[/sh] Качество: HDRip-AVC
[sh]» Продолжительность: 01:35:49
[sh]»[/sh] Формат: MKV
[sh]» Видео кодек: Н.264
[sh]»[/sh] Аудио кодек: AC3
[sh]»[/sh] Видео: 1152x624(1.785:1), 234.000 fps, Н.264, ~2375 kbps avg, 0.138 bit/pixel
[sh]»[/sh] Аудио: 48 kHz, AC3 Dolby Digital, 6 ch, ~448.00 kbps avg - |VO|
[sh]»[/sh] Аудио: 48 kHz, AC3 Dolby Digital, 6 ch, ~448.00 kbps avg - |ENG|
Премьера (мир): 20 июля 2012

Media Info

D:\фильмы\Interview with a Hitman.2012.HDRip-AVC.mkv
   General
      Unique ID : 184761187534561623911100558501971794019 (0x8AFFB5DA5F1F8152A383A166B2689863)
      Complete name : D:\фильмы\Interview with a Hitman.2012.HDRip-AVC.mkv
      Format : Matroska
      Format version : Version 2
      File size : 2.18 GiB
      Duration : 1h 35mn
      Overall bit rate : 3 255 Kbps
      Movie name : Interview with a Hitman_Deerhoof
      Encoded date : UTC 2012-09-21 16:04:41
      Writing application : mkvmerge v5.6.0 ('Kenya Kane') built on May 27 2012 16:44:04
      Writing library : libebml v1.2.3 + libmatroska v1.3.0
   Video #1
      ID : 1
      Format : AVC
      Format/Info : Advanced Video Codec
      Format profile : High@L4.1
      Format settings, CABAC : Yes
      Format settings, ReFrames : 10 frames
      Codec ID : V_MPEG4/ISO/AVC
      Duration : 1h 35mn
      Bit rate : 2 375 Kbps
      Width : 1 152 pixels
      Height : 624 pixels
      Display aspect ratio : 1.85:1
      Frame rate : 24.000 fps
      Color space : YUV
      Chroma subsampling : 4:2:0
      Bit depth : 8 bits
      Scan type : Progressive
      Bits/(Pixel*Frame) : 0.138
      Stream size : 1.54 GiB (70%)
      Title : Interview with a Hitman.2012.HDRip-AVC_[rutracker.org]_by_Deerhoof
      Writing library : x264 core 125 r2200 999b753
      Encoding settings : cabac=1 / ref=10 / deblock=1:-2:-1 / analyse=0x3:0x133 / me=umh / subme=11 / psy=1 / psy_rd=0.95:0.05 / mixed_ref=1 / me_range=48 / chroma_me=1 / trellis=2 / 8x8dct=1 / cqm=0 / deadzone=21,11 / fast_pskip=0 / chroma_qp_offset=-3 / threads=6 / lookahead_threads=1 / sliced_threads=0 / nr=0 / decimate=1 / interlaced=0 / bluray_compat=0 / constrained_intra=0 / bframes=9 / b_pyramid=2 / b_adapt=2 / b_bias=0 / direct=3 / weightb=0 / open_gop=0 / weightp=2 / keyint=240 / keyint_min=24 / scenecut=40 / intra_refresh=0 / rc_lookahead=80 / rc=2pass / mbtree=1 / bitrate=2375 / ratetol=1.0 / qcomp=0.60 / qpmin=0 / qpmax=69 / qpstep=4 / cplxblur=20.0 / qblur=0.5 / ip_ratio=1.40 / aq=2:0.90
      Language : English
      Default : Yes
      Forced : No
      Matrix coefficients : BT.709-5, BT.1361, IEC 61966-2-4 709, SMPTE RP177
   Audio #2
      ID : 2
      Format : AC-3
      Format/Info : Audio Coding 3
      Mode extension : CM (complete main)
      Format settings, Endianness : Big
      Codec ID : A_AC3
      Duration : 1h 35mn
      Bit rate mode : Constant
      Bit rate : 448 Kbps
      Channel(s) : 6 channels
      Channel positions : Front: L C R, Side: L R, LFE
      Sampling rate : 48.0 KHz
      Bit depth : 16 bits
      Compression mode : Lossy
      Stream size : 307 MiB (14%)
      Title : Одноголосый закадровый
      Language : Russian
      Default : Yes
      Forced : No
   Audio #3
      ID : 3
      Format : AC-3
      Format/Info : Audio Coding 3
      Mode extension : CM (complete main)
      Format settings, Endianness : Big
      Codec ID : A_AC3
      Duration : 1h 35mn
      Bit rate mode : Constant
      Bit rate : 448 Kbps
      Channel(s) : 6 channels
      Channel positions : Front: L C R, Side: L R, LFE
      Sampling rate : 48.0 KHz
      Bit depth : 16 bits
      Compression mode : Lossy
      Stream size : 307 MiB (14%)
      Language : English
      Default : No
      Forced : No
[th]http://torrentsclub.org/pictures/2fde10af32fdbf9b87...da59974.png[/th]
[th]http://torrentsclub.org/pictures/07ae27faf4c576ebcb...d249dd3.jpg[/th]
[th]http://torrentsclub.org/pictures/d0b1602deef4e7e6ee...09b577e.jpg[/th]


Последний раз редактировалось: STEFAN (2013-01-06 16:50), всего редактировалось 1 раз

[Цитировать]

По моему мнению этот фильм намного лучше Хитмэна...

[Цитировать]



Показать сообщения:    

Текущее время: 18-Янв 10:59

Часовой пояс: UTC + 3


Вы не можете начинать темы
Вы не можете отвечать на сообщения
Вы не можете редактировать свои сообщения
Вы не можете удалять свои сообщения
Вы не можете голосовать в опросах
Вы не можете прикреплять файлы к сообщениям
Вы не можете скачивать файлы

!ВНИМАНИЕ!
Сайт не предоставляет электронные версии произведений, а занимается лишь коллекционированием и каталогизацией ссылок, присылаемых и публикуемых на форуме нашими читателями. Если вы являетесь правообладателем какого-либо представленного материала и не желаете, чтобы ссылка на него находилась в нашем каталоге, свяжитесь с нами, и мы незамедлительно удалим ее. Файлы для обмена на трекере предоставлены пользователями сайта, и администрация не несет ответственности за их содержание. Просьба не заливать файлы, защищенные авторскими правами, а также файлы нелегального содержания!