[ Сегодня идет свободное скачивание без начисления Download ]


Статистика раздачи
Нет
 
   
 
Top  
 
 
Омерзительная восьмерка / The Hateful Eight Информация о фильме
Название: Омерзительная восьмерка
Оригинальное название: The Hateful Eight
Год выхода: 2015
Жанр: Триллер, драма, криминал, детектив, вестерн
Режиссер: Квентин Тарантино
В ролях: Курт Расселл, Сэмюэл Л. Джексон, Тим Рот, Майкл Мэдсен, Дженнифер Джейсон Ли, Уолтон Гоггинс, Демиан Бишир, Брюс Дерн, Джеймс Паркс, Дэна Гурье, Зои Белл, Ли Хорсли, Джин Джонс, Кит Джеффресон, Крэйг Старк, Белинда Овино, Ченнинг Татум, Брюс Дель Кастилло, Квентин Тарантино
О фильме:
Эта добрая история от Квентина Тарантино начинается в занесенных снегами полях Вайоминга вблизи Скалистых гор спустя два года после окончания Гражданской войны. Знаменитый охотник за головами Джон "Вешатель" Рут галантно сопровождает до ближайшей виселицы некую Дейзи Домергу, беспрестанно демонстрирующую ослепительную улыбку в три зуба. На дороге они подбирают еще двоих случайных попутчиков. Все четверо вынуждены искать укрытие от надвигающегося снежного бурана в галантерейной лавке Минни на горном перевале, где их ожидает целый парк кровавых аттракционов.

Страна: США
Студия: The Weinstein Company LLC
Продолжительность: 02:47:46
Перевод: Дублированный | Лицензия
Авторский одноголосый (закадровый)
Файл
Кодек: MPEG-4
Качество: BDRip 1080p
Видео: 1920x1080, 29.9 Мbit/s, 23.976 fps
Звук:
Аудио #01: 48 kHz, DTS, 5.1, 1510 Kbps | Дублированный, Лицензия (Blu-Ray RUS) |
Аудио #02: 48 kHz, AC3, 5.1, 640 Kbps | Дублированный, Лицензия (Blu-Ray RUS) |
Аудио #03: 48 kHz, DTS, 5.1, 1510 Kbps | Авторский одноголосый (закадровый), А. Матвеев |
Аудио #04: 48 kHz, AC3, 5.1, 640 Kbps | Авторский одноголосый (закадровый), А. Матвеев |
Аудио #05: 48 kHz, DTS, 5.1, 1510 Kbps | Авторский одноголосый (закадровый), Д. Есарев |
Аудио #06: 48 kHz, AC3, 5.1, 640 Kbps | Авторский одноголосый (закадровый), Д. Есарев |
Аудио #07: 48 kHz, AC3, 5.1, 640 Kbps | Авторский одноголосый (закадровый), Ю. Сербин |
Аудио #08: 48 kHz, DTS-HD MA, 5.1, 35.08 kbps | Оригинал |
Субтитры: Русские (форсированные, полные, Матвеев, Ахметов), английские (srt,SDH)

MI

Общее
Уникальный идентификатор : 212750339251801602283014450397522115306 (0xA00E39935501B269954C5F71E3F73AEA)
Полное имя : G:VideoвосьмеркаThe.Hateful.Eight.2015.BDREMUX.1080p.ExKinoRay.mkv
Формат : Matroska
Версия формата : Version 4 / Version 2
Размер файла : 47,4 Гбайт
Продолжительность : 2 ч. 47 м.
Режим общего битрейта : Переменный
Общий поток : 40,5 Мбит/сек
Название фильма : The.Hateful.Eight.2015.BDREMUX.1080p.ExKinoRay
Дата кодирования : UTC 2016-05-12 12:58:42
Программа кодирования : mkvmerge v8.3.0 ('Over the Horizon') 64bit
Библиотека кодирования : libebml v1.3.1 + libmatroska v1.4.2
Видео
Идентификатор : 1
Формат : AVC
Формат/Информация : Advanced Video Codec
Профиль формата : High@L4.1
Параметр CABAC формата : Да
Параметр ReFrames формата : 4 кадра
Параметр GOP формата : M=3, N=12
Идентификатор кодека : V_MPEG4/ISO/AVC
Продолжительность : 2 ч. 47 м.
Вид битрейта : Переменный
Битрейт : 29,9 Мбит/сек
Максимальный битрейт : 38,0 Мбит/сек
Ширина : 1920 пикселей
Высота : 1080 пикселей
Соотношение сторон : 16:9
Режим частоты кадров : Постоянный
Частота кадров : 23,976 (24000/1001) кадра/сек
Цветовое пространство : YUV
Субдискретизация насыщенности : 4:2:0
Битовая глубина : 8 бит
Тип развёртки : Прогрессивная
Бит/(Пиксели*Кадры) : 0.601
Размер потока : 35,0 Гбайт (74%)
Заголовок : The.Hateful.Eight.2015.BDREMUX.1080p.ExKinoRay.***селезень***
Язык : English
Default : Нет
Forced : Нет
Аудио #1
Идентификатор : 2
Формат : DTS
Формат/Информация : Digital Theater Systems
Режим : 16
Параметр Endianness формата : Big
Идентификатор кодека : A_DTS
Продолжительность : 2 ч. 47 м.
Вид битрейта : Постоянный
Битрейт : 1509 Кбит/сек
Каналы : 6 каналов
Расположение каналов : Front: L C R, Side: L R, LFE
Частота : 48,0 КГц
Частота кадров : 93,750 кадра/сек (512 spf)
Битовая глубина : 24 бит
Метод сжатия : С потерями
Размер потока : 1,77 Гбайт (4%)
Заголовок : DUB-DTS [Blu-Ray RUS]
Язык : Russian
Default : Да
Forced : Нет
Аудио #2
Идентификатор : 3
Формат : AC-3
Формат/Информация : Audio Coding 3
Расширение режима : CM (complete main)
Параметр Endianness формата : Big
Идентификатор кодека : A_AC3
Продолжительность : 2 ч. 47 м.
Вид битрейта : Постоянный
Битрейт : 640 Кбит/сек
Каналы : 6 каналов
Расположение каналов : Front: L C R, Side: L R, LFE
Частота : 48,0 КГц
Частота кадров : 31,250 кадров/сек (1536 spf)
Метод сжатия : С потерями
Размер потока : 768 Мбайт (2%)
Заголовок : DUB [Blu-Ray RUS]
Язык : Russian
Default : Нет
Forced : Нет
Аудио #3
Идентификатор : 4
Формат : DTS
Формат/Информация : Digital Theater Systems
Режим : 16
Параметр Endianness формата : Big
Идентификатор кодека : A_DTS
Продолжительность : 2 ч. 47 м.
Вид битрейта : Постоянный
Битрейт : 1509 Кбит/сек
Каналы : 6 каналов
Расположение каналов : Front: L C R, Side: L R, LFE
Частота : 48,0 КГц
Частота кадров : 93,750 кадра/сек (512 spf)
Битовая глубина : 24 бит
Метод сжатия : С потерями
Размер потока : 1,77 Гбайт (4%)
Заголовок : AVO-DTS [A.Matveev]
Язык : Russian
Default : Нет
Forced : Нет
Аудио #4
Идентификатор : 5
Формат : AC-3
Формат/Информация : Audio Coding 3
Расширение режима : CM (complete main)
Параметр Endianness формата : Big
Идентификатор кодека : A_AC3
Продолжительность : 2 ч. 47 м.
Вид битрейта : Постоянный
Битрейт : 640 Кбит/сек
Каналы : 6 каналов
Расположение каналов : Front: L C R, Side: L R, LFE
Частота : 48,0 КГц
Частота кадров : 31,250 кадров/сек (1536 spf)
Метод сжатия : С потерями
Размер потока : 768 Мбайт (2%)
Заголовок : AVO [A.Matveev]
Язык : Russian
Default : Нет
Forced : Нет
Аудио #5
Идентификатор : 6
Формат : DTS
Формат/Информация : Digital Theater Systems
Режим : 16
Параметр Endianness формата : Big
Идентификатор кодека : A_DTS
Продолжительность : 2 ч. 47 м.
Вид битрейта : Постоянный
Битрейт : 1509 Кбит/сек
Каналы : 6 каналов
Расположение каналов : Front: L C R, Side: L R, LFE
Частота : 48,0 КГц
Частота кадров : 93,750 кадра/сек (512 spf)
Битовая глубина : 24 бит
Метод сжатия : С потерями
Размер потока : 1,77 Гбайт (4%)
Заголовок : AVO-DTS [D.Esarev]
Язык : Russian
Default : Нет
Forced : Нет
Аудио #6
Идентификатор : 7
Формат : AC-3
Формат/Информация : Audio Coding 3
Расширение режима : CM (complete main)
Параметр Endianness формата : Big
Идентификатор кодека : A_AC3
Продолжительность : 2 ч. 47 м.
Вид битрейта : Постоянный
Битрейт : 640 Кбит/сек
Каналы : 6 каналов
Расположение каналов : Front: L C R, Side: L R, LFE
Частота : 48,0 КГц
Частота кадров : 31,250 кадров/сек (1536 spf)
Метод сжатия : С потерями
Размер потока : 768 Мбайт (2%)
Заголовок : AVO [D.Esarev]
Язык : Russian
Default : Нет
Forced : Нет
Аудио #7
Идентификатор : 8
Формат : AC-3
Формат/Информация : Audio Coding 3
Расширение режима : CM (complete main)
Параметр Endianness формата : Big
Идентификатор кодека : A_AC3
Продолжительность : 2 ч. 47 м.
Вид битрейта : Постоянный
Битрейт : 640 Кбит/сек
Каналы : 6 каналов
Расположение каналов : Front: L C R, Side: L R, LFE
Частота : 48,0 КГц
Частота кадров : 31,250 кадров/сек (1536 spf)
Метод сжатия : С потерями
Размер потока : 768 Мбайт (2%)
Заголовок : AVO [U.Serbin]
Язык : Russian
Default : Нет
Forced : Нет
Аудио #8
Идентификатор : 9
Формат : DTS
Формат/Информация : Digital Theater Systems
Профиль формата : MA / Core
Режим : 16
Параметр Endianness формата : Big
Идентификатор кодека : A_DTS
Продолжительность : 2 ч. 47 м.
Вид битрейта : Переменный / Постоянный
Битрейт : 3508 Кбит/сек / 1509 Кбит/сек
Каналы : 6 каналов
Расположение каналов : Front: L C R, Side: L R, LFE
Частота : 48,0 КГц
Частота кадров : 93,750 кадра/сек (512 spf)
Битовая глубина : 24 бит
Метод сжатия : Без потерь / Lossy
Размер потока : 4,11 Гбайт (9%)
Заголовок : Original DTS-HD MA
Язык : English
Default : Нет
Forced : Нет
Текст #1
Идентификатор : 10
Формат : UTF-8
Идентификатор кодека : S_TEXT/UTF8
Идентификатор кодека/Информация : UTF-8 Plain Text
Продолжительность : 2 ч. 18 м.
Битрейт : 1 бит/сек
Count of elements : 15
Размер потока : 1,02 Кбайт (0%)
Заголовок : Forced
Язык : Russian
Default : Да
Forced : Да
Текст #2
Идентификатор : 11
Формат : UTF-8
Идентификатор кодека : S_TEXT/UTF8
Идентификатор кодека/Информация : UTF-8 Plain Text
Продолжительность : 2 ч. 41 м.
Битрейт : 90 бит/сек
Count of elements : 1740
Размер потока : 107 Кбайт (0%)
Заголовок : Full
Язык : Russian
Default : Нет
Forced : Нет
Текст #3
Идентификатор : 12
Формат : UTF-8
Идентификатор кодека : S_TEXT/UTF8
Идентификатор кодека/Информация : UTF-8 Plain Text
Продолжительность : 2 ч. 42 м.
Битрейт : 89 бит/сек
Count of elements : 1741
Размер потока : 107 Кбайт (0%)
Заголовок : Matveev
Язык : Russian
Default : Нет
Forced : Нет
Текст #4
Идентификатор : 13
Формат : UTF-8
Идентификатор кодека : S_TEXT/UTF8
Идентификатор кодека/Информация : UTF-8 Plain Text
Продолжительность : 2 ч. 38 м.
Битрейт : 93 бит/сек
Count of elements : 1705
Размер потока : 109 Кбайт (0%)
Заголовок : Ahmetov
Язык : Russian
Default : Нет
Forced : Нет
Текст #5
Идентификатор : 14
Формат : UTF-8
Идентификатор кодека : S_TEXT/UTF8
Идентификатор кодека/Информация : UTF-8 Plain Text
Продолжительность : 2 ч. 38 м.
Битрейт : 62 бит/сек
Count of elements : 2633
Размер потока : 72,3 Кбайт (0%)
Язык : English
Default : Нет
Forced : Нет
Текст #6
Идентификатор : 15
Формат : UTF-8
Идентификатор кодека : S_TEXT/UTF8
Идентификатор кодека/Информация : UTF-8 Plain Text
Продолжительность : 2 ч. 47 м.
Битрейт : 67 бит/сек
Count of elements : 3045
Размер потока : 82,4 Кбайт (0%)
Заголовок : SDH
Язык : English
Default : Нет
Forced : Нет
Меню
00:00:00.000 : en:Chapter 01
00:04:33.523 : en:Chapter 02
00:11:36.112 : en:Chapter 03
00:22:01.362 : en:Chapter 04
00:35:02.434 : en:Chapter 05
00:43:31.901 : en:Chapter 06
00:52:12.212 : en:Chapter 07
00:59:04.499 : en:Chapter 08
01:08:30.315 : en:Chapter 09
01:16:10.858 : en:Chapter 10
01:25:18.447 : en:Chapter 11
01:35:06.492 : en:Chapter 12
01:42:20.176 : en:Chapter 13
01:50:33.335 : en:Chapter 14
01:59:32.499 : en:Chapter 15
02:06:43.054 : en:Chapter 16
02:13:26.624 : en:Chapter 17
02:19:59.725 : en:Chapter 18
02:24:17.023 : en:Chapter 19
02:34:08.114 : en:Chapter 20
02:39:38.027 : en:Chapter 21
02:43:22.751 : en:Chapter 22

Скриншоты

[Цитировать]

Топик был перенесен из форума Зарубежное кино (HD Video) в форум Зарубежные фильмы
Viktor1952



Показать сообщения:    

Текущее время: 10-Дек 23:30

Часовой пояс: UTC + 3


Вы не можете начинать темы
Вы не можете отвечать на сообщения
Вы не можете редактировать свои сообщения
Вы не можете удалять свои сообщения
Вы не можете голосовать в опросах
Вы не можете прикреплять файлы к сообщениям
Вы не можете скачивать файлы

!ВНИМАНИЕ!
Сайт не предоставляет электронные версии произведений, а занимается лишь коллекционированием и каталогизацией ссылок, присылаемых и публикуемых на форуме нашими читателями. Если вы являетесь правообладателем какого-либо представленного материала и не желаете, чтобы ссылка на него находилась в нашем каталоге, свяжитесь с нами, и мы незамедлительно удалим ее. Файлы для обмена на трекере предоставлены пользователями сайта, и администрация не несет ответственности за их содержание. Просьба не заливать файлы, защищенные авторскими правами, а также файлы нелегального содержания!