[ Сегодня идет свободное скачивание без начисления Download ]


Статистика раздачи
Скачал: [ 2 ]
 
   
 
Top  
 
 
--ABBA - Greatest Hits (2012) HDTVRip 720p | 50 fps-- Информация о концерте
Название: ABBA - Greatest Hits (ZDF NEO HD Live 2012)
Год выхода: 2012
Жанр: Pop
Исполнитель: ABBA
Продолжительность: 01:27:36
О концерте:
Show - Mit ABBA, der Neuen Deutschen Welle, Boney M. und anderen Topacts wird die Nacht zum 1. Mai zur Nacht im Diskofieber. Bei temperamentvollen Rhythmen der 70er und 80er Jahre wird der Tanz in den Mai zur rauschenden Party. ABBA - Poplegende, Musikphänomen und Kultband. Ihr Sieg beim Grand Prix Eurovision de la Chanson vor 35 Jahren markiert den Beginn einer Erfolgsstory, die ihresgleichen sucht. Noch heute, mehr als 25 Jahre nach dem Auseinandergehen der Gruppe, sind Agnetha, Björn, Benny und Anni-Frid unvergessen. Nicht zuletzt das Bühnenmusical "Mamma Mia!" und der gleichnamige Kinofilm tragen zur weltweiten ABBA-Mania bei und halten ihre Hits lebendig wie eh und je. Ingo Nommsen erinnert in "Kult am Sonntag" mit zahlreichen Archivausschnitten an die vier Schweden und versucht mit seinen Gesprächspartnern, dem Phänomen ABBA auf die Spur zu kommen. Zu seinen Gästen gehören der Musicalstar Carolin Fortenbacher, die in Deutschland die weibliche Hauptrolle in "Mamma Mia!" übernahm, der Schauspieler und ABBA-Experte Georg Uecker, der Fotograf Wolfgang "Bubi" Heilemann, der die Gruppe über lange Jahre begleitete, sowie Deutschlands bekannteste Drag-Queen Olivia Jones. Als besonderer musikalischer Gast wird der weltweit erfolgreiche Crossover-Act Il Divo erwartet, der seine ganz eigene Interpretation des ABBA-Hits "The Winner Takes It All" präsentiert.
Файл
Кодек: MPEG4/ISO/AVC H.264
Формат: MKV
Качество: HDTVRip 720p | 50 fps
Видео: 1280 x 720 (1.778) | 50.000 fps | 12.3 Мбит/сек
Аудио: AC-3 | 2.0 | 48 kHz | 448 kbps | 16 bit

Треклист

01. Pretty Hurts - Harvey Keitel
01. Intro
02. People Need Love (1973)
03. Waterloo (1974)
04. Honey, Honey (1974)
05. So Long (1975)
06. I Do, I Do, I Do, I Do, I Do (1975)
07. S.O.S. (1975)
08. Mamma Mia (1976)
09. Dancing Queen (1976)
10. Money, Money, Money (1976)
11. Take A Chance On Me (1978)
12. Eagle (1978)
13. Chiquitita (1980)
14. The Winner Takes It All (1980)
15. Super Trouper (1980)
16. On And On And On (1980)
17. The Day Before You Came (1982)
18. Cassandra (1982)
19. Under Attack (1982)
20. Thank You For The Music (1978)
21. Anni-Frid Lyngstad - I Know There's Something Going On (1982)
22. Anni-Frid Lyngstad - Baby Don't You Cry No More (1982)
23. Agnetha Fältskog - The Heat Is On (1983)
24. Agnetha Fältskog - Wrap Your Arms Around Me (1983)
25. Anni-Frid Lyngstad - Come To Me (1984)
26. Murray Head - One Night In Bangkok (1984)

MediaInfo

Видео
Идентификатор : 2
Формат : AVC
Формат/Информация : Advanced Video Codec
Профиль формата : [email protected]
Параметр CABAC формата : Да
Параметр ReFrames формата : 3 кадра
Идентификатор кодека : V_MPEG4/ISO/AVC
Продолжительность : 1 ч. 27 м.
Вид битрейта : Переменный
Битрейт : 12,3 Мбит/сек
Максимальный битрейт : 12,6 Мбит/сек
Ширина : 1280 пикселей
Высота : 720 пикселей
Соотношение сторон : 16:9
Режим частоты кадров : Постоянный
Частота кадров : 50,000 кадров/сек
Стандарт вещания : NTSC
Цветовое пространство : YUV
Субдискретизация насыщенности : 4:2:0
Битовая глубина : 8 бит
Тип развёртки : Прогрессивная
Бит/(Пиксели*Кадры) : 0.268
Размер потока : 7,56 Гбайт (95%)
Библиотека кодирования : x264 core 114
Настройки программы : cabac=1 / ref=3 / deblock=1:0:0 / analyse=0x3:0x113 / me=hex / subme=7 / psy=1 / psy_rd=1.00:0.00 / mixed_ref=1 / me_range=16 / chroma_me=1 / trellis=1 / 8x8dct=1 / cqm=2 / deadzone=21,11 / fast_pskip=1 / chroma_qp_offset=-2 / threads=9 / sliced_threads=0 / slices=1 / nr=0 / decimate=1 / interlaced=0 / constrained_intra=0 / bframes=3 / b_pyramid=0 / b_adapt=1 / b_bias=0 / direct=1 / weightb=1 / open_gop=0 / weightp=2 / keyint=250 / keyint_min=25 / scenecut=40 / intra_refresh=0 / rc_lookahead=40 / rc=crf / mbtree=1 / crf=1.0 / qcomp=0.60 / qpmin=3 / qpmax=69 / qpstep=4 / vbv_maxrate=12600 / vbv_bufsize=12599 / crf_max=51.0 / nal_hrd=vbr / ip_ratio=1.40 / aq=1:1.00
Default : Да
Forced : Нет
Основные цвета : BT.709
Характеристики трансфера : BT.709
Коэффициенты матрицы : BT.709
colour_range : Limited
Аудио
Идентификатор : 1
Формат : AC-3
Формат/Информация : Audio Coding 3
Расширение режима : CM (complete main)
Параметр Endianness формата : Big
Идентификатор кодека : A_AC3
Продолжительность : 1 ч. 27 м.
Вид битрейта : Постоянный
Битрейт : 448 Кбит/сек
Каналы : 2 канала
Расположение каналов : Front: L R
Частота : 48,0 КГц
Битовая глубина : 16 бит
Метод сжатия : С потерями
Размер потока : 281 Мбайт (3%)
Default : Да
Forced : Нет
Меню
00:00:00.000 : :Intro
00:00:17.780 : :People Need Love (1973)
00:02:57.660 : :Waterloo (1974)
00:05:41.880 : :Honey, Honey (1974)
00:08:31.560 : :So Long (1975)
00:11:22.500 : :I Do, I Do, I Do, I Do, I Do (1975)
00:14:34.840 : :S.O.S. (1975)
00:17:58.980 : :Mamma Mia (1976)
00:21:21.000 : :Dancing Queen (1976)
00:24:56.040 : :Money, Money, Money (1976)
00:28:00.460 : :Take A Chance On Me (1978)
00:31:37.980 : :Eagle (1978)
00:35:01.620 : :Chiquitita (1980)
00:38:17.400 : :The Winner Takes It All (1980)
00:42:31.680 : :Super Trouper (1980)
00:46:34.840 : :On And On And On (1980)
00:49:54.180 : :The Day Before You Came (1982)
00:54:39.360 : :Cassandra (1982)
00:59:17.880 : :Under Attack (1982)
01:02:50.020 : :Thank You For The Music (1978)
01:05:54.060 : :Anni-Frid Lyngstad - I Know There's Something Going On (1982)
01:09:55.519 : :Anni-Frid Lyngstad - Baby Don't You Cry No More (1982)
01:13:07.620 : :Agnetha Fältskog - The Heat Is On (1983)
01:16:16.460 : :Agnetha Fältskog - Wrap Your Arms Around Me (1983)
01:19:52.420 : :Anni-Frid Lyngstad - Come To Me (1984)
01:24:08.860 : :Murray Head - One Night In Bangkok (1984)

Скриншоты

[Цитировать]



Показать сообщения:    

Текущее время: 04-Дек 09:11

Часовой пояс: UTC + 3


Вы не можете начинать темы
Вы не можете отвечать на сообщения
Вы не можете редактировать свои сообщения
Вы не можете удалять свои сообщения
Вы не можете голосовать в опросах
Вы не можете прикреплять файлы к сообщениям
Вы не можете скачивать файлы

!ВНИМАНИЕ!
Сайт не предоставляет электронные версии произведений, а занимается лишь коллекционированием и каталогизацией ссылок, присылаемых и публикуемых на форуме нашими читателями. Если вы являетесь правообладателем какого-либо представленного материала и не желаете, чтобы ссылка на него находилась в нашем каталоге, свяжитесь с нами, и мы незамедлительно удалим ее. Файлы для обмена на трекере предоставлены пользователями сайта, и администрация не несет ответственности за их содержание. Просьба не заливать файлы, защищенные авторскими правами, а также файлы нелегального содержания!