[ Сегодня идет свободное скачивание без начисления Download ]


Статистика раздачи
Нет
 
   
 
Top  
 
 
Восставший / Risen Информация о фильме
Название: Восставший
Оригинальное название: Risen
Год выхода: 2016
Жанр: Боевик, драма, детектив, приключения
Режиссер: Кевин Рейнольдс
В ролях: Джозеф Файнс, Том Фелтон, Питер Фёрт, Клифф Кёртис, Мария Ботто, Луис Кальехо, Антонио Хиль-Мартинес, Ричард Этуилл, Марк Киллин, Стюарт Скудамор
О фильме:
В картине пойдет речь о первых 40 днях, последовавших вслед за воскресением Христа. Основным персонажем станет атеистически настроенный римский центурион, которого прокуратор Иудеи, Понтий Пилат, посылает разузнать с чем связаны слухи о воскресении Христа, а также попытаться отыскать тело этого новоявленного мессии.

Страна: США
Студия: Liddell Entertainment, Affirm Films, Columbia Pictures, Patrick Aiello Productions
Продолжительность: 01:47:38
Перевод: Любительский многоголосый (закадровый) | Paradox & Omskbird records
Файл
Кодек: MPEG-4
Качество: BDRemux 1080p
Видео: 1920x1080, 24.9 Mbit/s, 23.976 fps
Звук:
Аудио #01: 48 kHz, DTS, 5.1, 1510 Kbps | Любительский многоголосый (закадровый), Paradox & Omskbird records |
Аудио #02: 48 kHz, DTS-HD MA, 5.1, 2148 kbps | Оригинал |
Субтитры: Русские, английские

MI

Общее
Уникальный идентификатор : 234237336330568624680949332287698264216 (0xB0387852C9E55199A2DE824925B06098)
Полное имя : G:VideoRisen.2016.BDREMUX.1080p.ExKinoRay.mkv
Формат : Matroska
Версия формата : Version 4 / Version 2
Размер файла : 21,5 Гбайт
Продолжительность : 1 ч. 47 м.
Режим общего битрейта : Переменный
Общий поток : 28,6 Мбит/сек
Название фильма : Risen.2016.BDREMUX.1080p.ExKinoRay
Дата кодирования : UTC 2016-05-13 19:13:08
Программа кодирования : mkvmerge v8.3.0 ('Over the Horizon') 64bit
Библиотека кодирования : libebml v1.3.1 + libmatroska v1.4.2
Видео
Идентификатор : 1
Формат : AVC
Формат/Информация : Advanced Video Codec
Профиль формата : High@L4.1
Параметр CABAC формата : Да
Параметр ReFrames формата : 2 кадра
Параметр GOP формата : M=1, N=10
Идентификатор кодека : V_MPEG4/ISO/AVC
Продолжительность : 1 ч. 47 м.
Вид битрейта : Переменный
Битрейт : 24,9 Мбит/сек
Ширина : 1920 пикселей
Высота : 1080 пикселей
Соотношение сторон : 16:9
Режим частоты кадров : Постоянный
Частота кадров : 23,976 (24000/1001) кадра/сек
Цветовое пространство : YUV
Субдискретизация насыщенности : 4:2:0
Битовая глубина : 8 бит
Тип развёртки : Прогрессивная
Бит/(Пиксели*Кадры) : 0.501
Размер потока : 18,7 Гбайт (87%)
Язык : English
Default : Да
Forced : Нет
Аудио #1
Идентификатор : 2
Формат : DTS
Формат/Информация : Digital Theater Systems
Режим : 16
Параметр Endianness формата : Big
Идентификатор кодека : A_DTS
Продолжительность : 1 ч. 47 м.
Вид битрейта : Постоянный
Битрейт : 1510 Кбит/сек
Каналы : 6 каналов
Расположение каналов : Front: L C R, Side: L R, LFE
Частота : 48,0 КГц
Частота кадров : 93,750 кадра/сек (512 spf)
Битовая глубина : 24 бит
Метод сжатия : С потерями
Размер потока : 1,14 Гбайт (5%)
Заголовок : MVO [Paradox & Omskbird records]
Язык : Russian
Default : Да
Forced : Нет
Аудио #2
Идентификатор : 3
Формат : DTS
Формат/Информация : Digital Theater Systems
Профиль формата : MA / Core
Режим : 16
Параметр Endianness формата : Big
Идентификатор кодека : A_DTS
Продолжительность : 1 ч. 47 м.
Вид битрейта : Переменный / Постоянный
Битрейт : 2148 Кбит/сек / 1509 Кбит/сек
Каналы : 6 каналов
Расположение каналов : Front: L C R, Side: L R, LFE
Частота : 48,0 КГц
Частота кадров : 93,750 кадра/сек (512 spf)
Битовая глубина : 16 бит
Метод сжатия : Без потерь / Lossy
Размер потока : 1,62 Гбайт (8%)
Заголовок : Original
Язык : English
Default : Нет
Forced : Нет
Текст #1
Идентификатор : 4
Формат : UTF-8
Идентификатор кодека : S_TEXT/UTF8
Идентификатор кодека/Информация : UTF-8 Plain Text
Продолжительность : 1 ч. 40 м.
Битрейт : 60 бит/сек
Count of elements : 903
Размер потока : 44,6 Кбайт (0%)
Язык : Russian
Default : Нет
Forced : Нет
Текст #2
Идентификатор : 5
Формат : UTF-8
Идентификатор кодека : S_TEXT/UTF8
Идентификатор кодека/Информация : UTF-8 Plain Text
Продолжительность : 1 ч. 36 м.
Битрейт : 37 бит/сек
Count of elements : 988
Размер потока : 26,4 Кбайт (0%)
Язык : English
Default : Нет
Forced : Нет
Текст #3
Идентификатор : 6
Формат : UTF-8
Идентификатор кодека : S_TEXT/UTF8
Идентификатор кодека/Информация : UTF-8 Plain Text
Продолжительность : 1 ч. 38 м.
Битрейт : 44 бит/сек
Count of elements : 1237
Размер потока : 31,9 Кбайт (0%)
Заголовок : SDH
Язык : English
Default : Нет
Forced : Нет
Меню
00:00:00.000 : en:00:00:00
00:06:50.243 : en:00:06:50
00:14:18.733 : en:00:14:18
00:21:48.182 : en:00:21:48
00:27:35.195 : en:00:27:35
00:33:21.082 : en:00:33:21
00:40:03.985 : en:00:40:03
00:46:19.193 : en:00:46:19
00:54:06.243 : en:00:54:06
01:00:06.478 : en:01:00:06
01:07:53.027 : en:01:07:53
01:13:54.847 : en:01:13:54
01:19:46.657 : en:01:19:46
01:25:42.387 : en:01:25:42
01:33:16.132 : en:01:33:16
01:38:41.833 : en:01:38:41

Скриншоты

[Цитировать]



Показать сообщения:    

Текущее время: 07-Дек 23:19

Часовой пояс: UTC + 3


Вы не можете начинать темы
Вы не можете отвечать на сообщения
Вы не можете редактировать свои сообщения
Вы не можете удалять свои сообщения
Вы не можете голосовать в опросах
Вы не можете прикреплять файлы к сообщениям
Вы не можете скачивать файлы

!ВНИМАНИЕ!
Сайт не предоставляет электронные версии произведений, а занимается лишь коллекционированием и каталогизацией ссылок, присылаемых и публикуемых на форуме нашими читателями. Если вы являетесь правообладателем какого-либо представленного материала и не желаете, чтобы ссылка на него находилась в нашем каталоге, свяжитесь с нами, и мы незамедлительно удалим ее. Файлы для обмена на трекере предоставлены пользователями сайта, и администрация не несет ответственности за их содержание. Просьба не заливать файлы, защищенные авторскими правами, а также файлы нелегального содержания!