[ Сегодня идет свободное скачивание без начисления Download ]


Статистика раздачи
Нет
 
   
 
Top  
 
 
Друзья / Les deux amis Информация о фильме
Название: Друзья
Оригинальное название: Les deux amis
Год выпуска: 2015
Страна: Франция
Жанр: мелодрама, комедия-Перевод: Профессиональный многоголосый [iTunes]
Продолжительность: 01:38:08-Режиссер: Луи Гаррель
В ролях: Голшифте Фарахани, Венсан Макен, Луи Гаррель, Мао Адам, Пьер Мэйллет, Кристель Делоз, Ризлен Эль Коэн, Йен Трам Ле Тхи, Хитоми Рьоке Дюран, Улисс Королитски-Описание:
Двое друзей - это заносчивый красавчик Абель и начинающий актер Клеман. Дружба дает трещину, когда оба влюбляются в Мону - симпатичную продавщицу в кофейном киоске на Северном Вокзале Парижа. Смешливая, но неприступная и загадочная, она не поддается на уловки романтиков - и на то есть причина. Любовный треугольник, то нелепый, то довольно опасный, складывается сам собой. Трое таких разных людей отправляются на ночную прогулку, которая раскроет тайну Моны и навсегда изменит друзей.-Рейтинг:
-Качество: WEB-DLRip-AVC
Формат: MKV
Видео: AVC, 1024x554 (16:9), 1721 kbps, 25 fps, 0,121 bpp
Аудио: русский / AC3 / 5.1 / 48 kHz / 384 kbps / 16 bit |MVO, iTunes|
Навигация по главам: есть
Семпл-

ОтчетМедиаИнфо

General
Unique ID : 231551849872238872436498642484048381926 (0xAE33439E554140E2B44270E018EF47E6)
Complete name : E:Les.Deux.Amis.2015.WEB-DLRip-AVC.by.R.G.Resident.mkv
Format : Matroska
Format version : Version 4 / Version 2
File size : 1.44 GiB
Duration : 1h 38mn
Overall bit rate : 2 106 Kbps
Movie name : Друзья (2015) WEB-DLRip-AVC by R.G. Resident
Encoded date : UTC 2016-05-14 16:58:13
Writing application : mkvmerge v9.1.0 ('Little Earthquakes') 64bit
Writing library : libebml v1.3.3 + libmatroska v1.4.4
DURATION : 01:38:08.352000000
NUMBER_OF_FRAMES : 184011
NUMBER_OF_BYTES : 282640896
_STATISTICS_WRITING_APP : mkvmerge v9.1.0 ('Little Earthquakes') 64bit
_STATISTICS_WRITING_DATE_UTC : 2016-05-14 16:58:13
_STATISTICS_TAGS : BPS DURATION NUMBER_OF_FRAMES NUMBER_OF_BYTES
Video
ID : 1
Format : AVC
Format/Info : Advanced Video Codec
Format profile : [email protected]
Format settings, CABAC : Yes
Format settings, ReFrames : 9 frames
Codec ID : V_MPEG4/ISO/AVC
Duration : 1h 38mn
Bit rate : 1 721 Kbps
Width : 1 024 pixels
Height : 554 pixels
Display aspect ratio : 16:9
Frame rate : 25.000 fps
Color space : YUV
Chroma subsampling : 4:2:0
Bit depth : 8 bits
Scan type : Progressive
Bits/(Pixel*Frame) : 0.121
Stream size : 1.15 GiB (80%)
Title : -Lexx-
Writing library : x264 core 146 r2538 121396c
Encoding settings : cabac=1 / ref=9 / deblock=1:-2:-2 / analyse=0x3:0x113 / me=umh / subme=11 / psy=1 / psy_rd=1.00:0.10 / mixed_ref=1 / me_range=48 / chroma_me=1 / trellis=2 / 8x8dct=1 / cqm=0 / deadzone=21,11 / fast_pskip=0 / chroma_qp_offset=-3 / threads=6 / lookahead_threads=2 / sliced_threads=0 / nr=0 / decimate=0 / interlaced=0 / bluray_compat=0 / constrained_intra=0 / bframes=9 / b_pyramid=2 / b_adapt=2 / b_bias=0 / direct=3 / weightb=1 / open_gop=0 / weightp=2 / keyint=250 / keyint_min=25 / scenecut=40 / intra_refresh=0 / rc=2pass / mbtree=0 / bitrate=1721 / ratetol=1.0 / qcomp=0.60 / qpmin=0 / qpmax=69 / qpstep=4 / cplxblur=20.0 / qblur=0.5 / ip_ratio=1.40 / pb_ratio=1.30 / aq=1:1.00
Language : English
Default : Yes
Forced : No
DURATION : 01:38:08.360000000
NUMBER_OF_FRAMES : 147209
NUMBER_OF_BYTES : 1266336882
_STATISTICS_WRITING_APP : mkvmerge v9.1.0 ('Little Earthquakes') 64bit
_STATISTICS_WRITING_DATE_UTC : 2016-05-14 16:58:13
_STATISTICS_TAGS : BPS DURATION NUMBER_OF_FRAMES NUMBER_OF_BYTES
Audio
ID : 2
Format : AC-3
Format/Info : Audio Coding 3
Mode extension : CM (complete main)
Codec ID : A_AC3
Duration : 1h 38mn
Bit rate mode : Constant
Bit rate : 384 Kbps
Channel(s) : 6 channels
Channel positions : Front: L C R, Side: L R, LFE
Sampling rate : 48.0 KHz
Bit depth : 16 bits
Compression mode : Lossy
Stream size : 270 MiB (18%)
Title : iTunes
Language : Russian
Default : Yes
Forced : No
Menu
00:00:00.000 : en:Глава 1
00:29:54.000 : en:Глава 2
01:00:28.000 : en:Глава 3
01:33:16.000 : en:Глава 4

Скриншоты

[Цитировать]



Показать сообщения:    

Текущее время: 04-Дек 05:00

Часовой пояс: UTC + 3


Вы не можете начинать темы
Вы не можете отвечать на сообщения
Вы не можете редактировать свои сообщения
Вы не можете удалять свои сообщения
Вы не можете голосовать в опросах
Вы не можете прикреплять файлы к сообщениям
Вы не можете скачивать файлы

!ВНИМАНИЕ!
Сайт не предоставляет электронные версии произведений, а занимается лишь коллекционированием и каталогизацией ссылок, присылаемых и публикуемых на форуме нашими читателями. Если вы являетесь правообладателем какого-либо представленного материала и не желаете, чтобы ссылка на него находилась в нашем каталоге, свяжитесь с нами, и мы незамедлительно удалим ее. Файлы для обмена на трекере предоставлены пользователями сайта, и администрация не несет ответственности за их содержание. Просьба не заливать файлы, защищенные авторскими правами, а также файлы нелегального содержания!