[ Сегодня идет свободное скачивание без начисления Download ]


Статистика раздачи
Скачал: [ 1 ]
 
   
 
Top  
 
 
Древнейшая профессия в мире / Le plus vieux métier du monde Название: Древнейшая профессия в мире
Оригинальное название: Le plus vieux métier du monde
Год выхода: 1967
Страна: Франция, Германия (ФРГ), Италия
Студия: Athos Films, Franco London Films, Francoriz Production
Продолжительность: 01:58:35
Жанр: драма, комедия, ...
Режиссер: Клод Отан-Лара, Мауро Болоньини, Филипп де Брока, Жан-Люк Годар, ...
В ролях: Мишель Мерсье, Энрико Мария Салерно, Габриэле Тинти, Эльза Мартинелли, Гастоне Москин, Джанкарло Кобелли, Жанна Моро, Катрин Сами, Жан-Клод Бриали, Жан Ришар, Рэкел Уэлч, Мартин Хельд, Зигфрид Шюренберг, Тилли Лауэнштайн, Надя Грей, Марилу Толо, Анна Карина...
Перевод: Профессиональный (двуголосый, закадровый) Светла
О фильме: Шесть новелл, в комедийной форме рассказывающих об истории проституции с древних времен до наших дней.…

Кодек: x264
Качество: DVDRip-AVC
Видео: 716x436 , 2500 kbps, 23,976 fps
Аудио #1: AC-3, 2 ch, 192 kbps (Rus) - DVO Светла
Аудио #2: AC-3, 2 ch, 192 kbps (Fre)
Субтитры: Английские, Французские

Дополнительная информация

За японский исходник спасибо - Avallac'h

MediaInfo

x264 [info]: frame I:1085 Avg QP:15.68 size: 46230
x264 [info]: frame P:36872 Avg QP:18.50 size: 22618
x264 [info]: frame B:132635 Avg QP:21.11 size: 10099
x264 [info]: consecutive B-frames: 1.4% 2.2% 6.7% 27.6% 18.5% 33.8% 4.5% 4.1% 0.7% 0.3% 0.3%
Общее
Уникальный идентификатор : 177133365915626401796060937200645601865 (0x8542A53618C370DE86D9BBA203A67A49)
Полное имя : Древнейшая профессия в мире (Le plus vieux métier du monde) 1967 DVDRip.mkv
Формат : Matroska
Версия формата : Version 2
Размер файла : 2,39 Гбайт
Продолжительность : 1 ч. 58 м.
Общий поток : 2886 Кбит/сек
Дата кодирования : UTC 2016-05-14 06:36:54
Программа кодирования : mkvmerge v4.0.0 ('The Stars were mine') сборка от Jun 6 2010 16:18:42
Библиотека кодирования : libebml v1.0.0 + libmatroska v1.0.0
Видео
Идентификатор : 1
Формат : AVC
Формат/Информация : Advanced Video Codec
Профиль формата : High@L4.1
Параметр CABAC формата : Да
Параметр ReFrames формата : 12 кадров
Идентификатор кодека : V_MPEG4/ISO/AVC
Продолжительность : 1 ч. 58 м.
Битрейт : 2500 Кбит/сек
Ширина : 716 пикселей
Высота : 436 пикселей
Соотношение сторон : 16:10
Режим частоты кадров : Постоянный
Частота кадров : 23,976 кадра/сек
Цветовое пространство : YUV
Субдискретизация насыщенности : 4:2:0
Битовая глубина : 8 бит
Тип развёртки : Прогрессивная
Бит/(Пиксели*Кадры) : 0.334
Размер потока : 2,03 Гбайт (85%)
Библиотека кодирования : x264 core 146 r2538 121396c
Настройки программы : cabac=1 / ref=12 / deblock=1:-3:-3 / analyse=0x3:0x133 / me=umh / subme=11 / psy=1 / psy_rd=1.00:0.00 / mixed_ref=1 / me_range=32 / chroma_me=1 / trellis=2 / 8x8dct=1 / cqm=0 / deadzone=21,11 / fast_pskip=0 / chroma_qp_offset=-2 / threads=12 / lookahead_threads=2 / sliced_threads=0 / nr=0 / decimate=0 / interlaced=0 / bluray_compat=0 / constrained_intra=0 / bframes=10 / b_pyramid=2 / b_adapt=2 / b_bias=0 / direct=3 / weightb=1 / open_gop=0 / weightp=2 / keyint=240 / keyint_min=23 / scenecut=40 / intra_refresh=0 / rc=2pass / mbtree=0 / bitrate=2500 / ratetol=1.0 / qcomp=0.60 / qpmin=0 / qpmax=69 / qpstep=4 / cplxblur=20.0 / qblur=0.5 / ip_ratio=1.40 / pb_ratio=1.30 / aq=1:0.80
Язык : French
Default : Нет
Forced : Нет
Аудио #1
Идентификатор : 2
Формат : AC-3
Формат/Информация : Audio Coding 3
Расширение режима : CM (complete main)
Параметр Endianness формата : Big
Идентификатор кодека : A_AC3
Продолжительность : 1 ч. 58 м.
Вид битрейта : Постоянный
Битрейт : 192 Кбит/сек
Каналы : 2 канала
Расположение каналов : Front: L R
Частота : 48,0 КГц
Метод сжатия : С потерями
Размер потока : 163 Мбайт (7%)
Заголовок : DVO Светла
Язык : Russian
Default : Нет
Forced : Нет
Аудио #2
Идентификатор : 3
Формат : AC-3
Формат/Информация : Audio Coding 3
Расширение режима : CM (complete main)
Параметр Endianness формата : Big
Идентификатор кодека : A_AC3
Продолжительность : 1 ч. 58 м.
Вид битрейта : Постоянный
Битрейт : 192 Кбит/сек
Каналы : 2 канала
Расположение каналов : Front: L R
Частота : 48,0 КГц
Метод сжатия : С потерями
Размер потока : 163 Мбайт (7%)
Язык : French
Default : Нет
Forced : Нет
Текст #1
Идентификатор : 4
Формат : UTF-8
Идентификатор кодека : S_TEXT/UTF8
Идентификатор кодека/Информация : UTF-8 Plain Text
Язык : English
Default : Нет
Forced : Нет
Текст #2
Идентификатор : 5
Формат : UTF-8
Идентификатор кодека : S_TEXT/UTF8
Идентификатор кодека/Информация : UTF-8 Plain Text
Язык : French
Default : Нет
Forced : Нет

Скриншоты


[Цитировать]



Показать сообщения:    

Текущее время: 09-Дек 18:29

Часовой пояс: UTC + 3


Вы не можете начинать темы
Вы не можете отвечать на сообщения
Вы не можете редактировать свои сообщения
Вы не можете удалять свои сообщения
Вы не можете голосовать в опросах
Вы не можете прикреплять файлы к сообщениям
Вы не можете скачивать файлы

!ВНИМАНИЕ!
Сайт не предоставляет электронные версии произведений, а занимается лишь коллекционированием и каталогизацией ссылок, присылаемых и публикуемых на форуме нашими читателями. Если вы являетесь правообладателем какого-либо представленного материала и не желаете, чтобы ссылка на него находилась в нашем каталоге, свяжитесь с нами, и мы незамедлительно удалим ее. Файлы для обмена на трекере предоставлены пользователями сайта, и администрация не несет ответственности за их содержание. Просьба не заливать файлы, защищенные авторскими правами, а также файлы нелегального содержания!