[ Today is free to download without increasing Download ]

DL-List and Torrent activity
[sh]Eminem - When I'm Gone[/sh]

Исполнитель: Eminem
Оригинальное название: When I'm Gone
Год выпуска: 2005
Жанр: Rap
Описание: Клип Eminema на песню When I'm Gone
Качество: HDTV (720p)
Продолжительность: 00:06:06
Формат: AVI
Видео: MPEG-4 Visual 1280x720 8 010 Kbps 29.970 fps
Аудио: AC3 384 Kbps 48.0 KHz 2 channels



Complete name                            : \Eminem - When Im Gone(720p).avi
Format                                   : AVI
Format/Info                              : Audio Video Interleave
File size                                : 350 MiB
Duration                                 : 6mn 6s
Overall bit rate                         : 8 010 Kbps
Writing application                      : VirtualDubMod (build 2178/release)
Writing library                          : VirtualDubMod build 2178/release
ID                                       : 0
Format                                   : MPEG-4 Visual
Format profile                           : Advanced Simple@L5
Format settings, BVOP                    : 1
Format settings, QPel                    : No
Format settings, GMC                     : No warppoints
Format settings, Matrix                  : Custom
Codec ID                                 : XVID
Codec ID/Hint                            : XviD
Duration                                 : 6mn 6s
Bit rate                                 : 7 300 Kbps
Width                                    : 1 280 pixels
Height                                   : 704 pixels
Display aspect ratio                     : 16:9
Frame rate                               : 29.970 fps
Color space                              : YUV
Chroma subsampling                       : 4:2:0
Bit depth                                : 8 bits
Scan type                                : Progressive
Compression mode                         : Lossy
Bits/(Pixel*Frame)                       : 0.270
Stream size                              : 319 MiB (91%)
Writing library                          : XviD 1.2.0SMP (UTC 2006-01-08)
ID                                       : 1
Format                                   : AC-3
Format/Info                              : Audio Coding 3
Mode extension                           : CM (complete main)
Format settings, Endianness              : Big
Codec ID                                 : 2000
Duration                                 : 6mn 6s
Bit rate mode                            : Constant
Bit rate                                 : 384 Kbps
Channel(s)                               : 2 channels
Channel positions                        : Front: L R
Sampling rate                            : 48.0 KHz
Bit depth                                : 16 bits
Compression mode                         : Lossy
Stream size                              : 16.8 MiB (5%)
Alignment                                : Aligned on interleaves


Display posts:    

Current time is: 26-Oct 22:17

All times are UTC + 3

You cannot post new topics in this forum
You cannot reply to topics in this forum
You cannot edit your posts in this forum
You cannot delete your posts in this forum
You cannot vote in polls in this forum
You cannot attach files in this forum
You cannot download files in this forum

The site does not give electronic versions of products, and is engaged only in a collecting and cataloguing of the references sent and published at a forum by our readers. If you are the legal owner of any submitted material and do not wish that the reference to it was in our catalogue, contact us and we shall immediately remove her. Files for an exchange on tracker are given by users of a site, and the administration does not bear the responsibility for their maintenance. The request to not fill in the files protected by copyrights, and also files of the illegal maintenance!