[ Сегодня идет свободное скачивание без начисления Download ]


Статистика раздачи
Скачал: [ 1 ]
 
   
 
Top  
 
 
Беспредел (1989) Информация о фильме
Название: Беспредел
Год выхода: 1989
Жанр: Драма, криминал
Режиссер: Игорь Гостев
В ролях: Андрей Ташков, Лев Дуров, Александр Мохов, Сергей Гармаш, Наиль Идрисов, Андрей Липихин, Антон Андросов, Александр Кузнецов, Ирина Аверина, Михаил Чигарёв, Александр Числов, Виктор Павлов, Михаил Жигалов, Андрей Щербович-Вечер, Александр Боровиков, Виктор Косых, Алексей Аблепихин, Александр Коданев, Алексей Спирин, Лев Поляков, Борис Юрченко, Геннадий Козырь, Пётр Кононыхин, Татьяна Агафонова, Борис Руднев, Юрий Зеленин, Олег Рогачев, Михаил Матюшевский
О фильме:
В исправительной колонии царят жестокие порядки, установленные администрацией и поддерживаемые среди заключенных с помощью воров в законе. Воровская «элита» творит свой суд и расправу над непокорными. Главный герой фильма не пожелал мириться с таким положение дел и вместе с несколькими заключенными, разделяющими его взгляды, попытался изменить беспросветную жизнь колонии. Противостояние двух неравных сил привело к бунту. Власти учинили новый беспредел и жестоко подавили стихийный протест заключенных…
Страна: СССР, Мосфильм
Продолжительность: 01:36:25
Перевод: не требуется
Файл
Кодек: x264
Качество: DVDRip-AVC
Видео: MPEG-4 AVC, 2500 Кбит/с, [email protected]
Звук: AC3, 2 ch, 192 Кбит/с

Медиа-Инфо

raw [info]: 688x574p 16:15 @ 25/1 fps (cfr)
x264 [info]: using SAR=16/15
x264 [info]: using cpu capabilities: MMX2 SSE2Fast SSSE3 SSE4.2 AVX
x264 [info]: profile High, level 4.1
x264 [info]: frame I:819 Avg QP:15.91 size: 76043
x264 [info]: frame P:36266 Avg QP:19.40 size: 29558
x264 [info]: frame B:107547 Avg QP:22.49 size: 6265
===================================================================================================
Общее
Уникальный идентификатор : 191676289255164225041298757732680032252 (0x903382B0D1DA0F76B29011F227EF5FFC)
Полное имя : D:Беспредел_1989-DVDRip-AVC.mkv
Формат : Matroska
Версия формата : Version 2
Размер файла : 1,81 Гбайт
Продолжительность : 1 ч. 36 м.
Общий поток : 2694 Кбит/сек
Дата кодирования : UTC 2016-05-13 12:21:09
Программа кодирования : mkvmerge v5.8.0 ('No Sleep / Pillow') built on Sep 2 2012 15:37:04
Библиотека кодирования : libebml v1.2.3 + libmatroska v1.3.0
Видео
Идентификатор : 1
Формат : AVC
Формат/Информация : Advanced Video Codec
Профиль формата : [email protected]
Параметр CABAC формата : Да
Параметр ReFrames формата : 15 кадров
Идентификатор кодека : V_MPEG4/ISO/AVC
Продолжительность : 1 ч. 36 м.
Битрейт : 2500 Кбит/сек
Ширина : 688 пикселей
Высота : 574 пикселя
Соотношение сторон : 1,279
Режим частоты кадров : Постоянный
Частота кадров : 25,000 кадров/сек
Цветовое пространство : YUV
Субдискретизация насыщенности : 4:2:0
Битовая глубина : 8 бит
Тип развёртки : Прогрессивная
Бит/(Пиксели*Кадры) : 0.253
Размер потока : 1,65 Гбайт (91%)
Библиотека кодирования : x264 core 148 r2638 7599210
Настройки программы : cabac=1 / ref=15 / deblock=1:-2:-2 / analyse=0x3:0x133 / me=umh / subme=10 / psy=1 / psy_rd=1.00:0.05 / mixed_ref=1 / me_range=32 / chroma_me=1 / trellis=2 / 8x8dct=1 / cqm=0 / deadzone=21,11 / fast_pskip=0 / chroma_qp_offset=-3 / threads=12 / lookahead_threads=2 / sliced_threads=0 / nr=0 / decimate=0 / interlaced=0 / bluray_compat=0 / constrained_intra=0 / bframes=8 / b_pyramid=2 / b_adapt=2 / b_bias=0 / direct=3 / weightb=1 / open_gop=0 / weightp=2 / keyint=250 / keyint_min=25 / scenecut=40 / intra_refresh=0 / rc=2pass / mbtree=0 / bitrate=2500 / ratetol=1.0 / qcomp=0.63 / qpmin=0 / qpmax=39 / qpstep=4 / cplxblur=20.0 / qblur=0.5 / ip_ratio=1.40 / pb_ratio=1.30 / aq=1:1.00
Язык : English
Default : Да
Forced : Нет
Цветовой диапазон : Limited
Основные цвета : BT.601 PAL
Характеристики трансфера : BT.470 System B, BT.470 System G
Коэффициенты матрицы : BT.601
Аудио
Идентификатор : 2
Формат : AC-3
Формат/Информация : Audio Coding 3
Расширение режима : CM (complete main)
Параметр Endianness формата : Big
Идентификатор кодека : A_AC3
Продолжительность : 1 ч. 36 м.
Вид битрейта : Постоянный
Битрейт : 192 Кбит/сек
Каналы : 2 канала
Расположение каналов : Front: L R
Частота : 48,0 КГц
Метод сжатия : С потерями
Размер потока : 132 Мбайт (7%)
Язык : Russian
Default : Да
Forced : Нет
Меню
00:00:00.000 : ru:Chapter 1
00:14:15.640 : ru:Chapter 2
00:29:30.120 : ru:Chapter 3
00:41:45.080 : ru:Chapter 4
00:55:44.240 : ru:Chapter 5
01:16:13.960 : ru:Chapter 6
01:36:25.240 : ru:Chapter 7
Релиз от:
Автор релиза:

[Цитировать]



Показать сообщения:    

Текущее время: 06-Дек 22:56

Часовой пояс: UTC + 3


Вы не можете начинать темы
Вы не можете отвечать на сообщения
Вы не можете редактировать свои сообщения
Вы не можете удалять свои сообщения
Вы не можете голосовать в опросах
Вы не можете прикреплять файлы к сообщениям
Вы не можете скачивать файлы

!ВНИМАНИЕ!
Сайт не предоставляет электронные версии произведений, а занимается лишь коллекционированием и каталогизацией ссылок, присылаемых и публикуемых на форуме нашими читателями. Если вы являетесь правообладателем какого-либо представленного материала и не желаете, чтобы ссылка на него находилась в нашем каталоге, свяжитесь с нами, и мы незамедлительно удалим ее. Файлы для обмена на трекере предоставлены пользователями сайта, и администрация не несет ответственности за их содержание. Просьба не заливать файлы, защищенные авторскими правами, а также файлы нелегального содержания!