[ Сегодня идет свободное скачивание без начисления Download ]


Статистика раздачи
Нет
 
   
 
Top  
 
 
Неуправляемый / Unstoppable
«Миллион тонн стали. Сто тысяч жизней на кону. Сто минут до катастрофы.»
?Год выпуска: 2010
?Страна: США
?Производство: Twentieth Century Fox Film Corporation
?Жанр: Боевик, триллер
?Режиссёр: Тони Скотт
?В ролях: Дензел Вашингтон, Крис Пайн, Розарио Доусон, Этан Сапли, Кевин Данн, Кевин Корригэн, Кевин Чэпмен, Лью Темпл, ТиДжей Миллер, Джесси Шрэм
?Перевод: Дублированный + Оригинал
?Озвучка: Неизвестно
?Субтитры: Русские (форс,полные), Английские
?Описание: Потерявший управление огромный беспилотный локомотив с токсичным грузом несется, сметая все на своем пути. Но главная опасность состоит в том, что если он сойдет с рельсов на очередном вираже, химической катастрофы не избежать. Все силы задействованы, все попытки остановить монстра тщетны, планов на спасение не осталось. Впрочем…

?Качество: BDRip 1080p
?Продолжительность: 01:38:30 час.
?Формат: MKV
?Главы: Есть
?Видео кодек: AVC
?Аудио кодек: AC3
?Видео: 1920x800 (2,40:1), 23.976 fps, 9999 kbps, 0.272 bit/ pixel
?Аудио №1: 48 kHz, AC3 5.1 ch, ~640 kbps | (Rus)
?Аудио №2: 48 kHz, AC3 5.1 ch, ~640 kbps | (Eng)

MediaInfo

Общее
Уникальный идентификатор : 208987684442517980183249683782853053848 (0x9D39905EDEB0DFF7AD1F1178791DCD98)
Полное имя : Unstoppable.2010.BDRip.1080p.Rus.Eng.mkv
Формат : Matroska
Версия формата : Version 2
Размер файла : 7,76 Гбайт
Продолжительность : 1 ч. 38 м.
Общий поток : 11,3 Мбит/сек
Название фильма : Неуправляемый / Unstoppable (2010)
Дата кодирования : UTC 2012-10-08 12:48:24
Программа кодирования : mkvmerge v5.8.0 ('No Sleep / Pillow') built on Sep 2 2012 15:37:04
Библиотека кодирования : libebml v1.2.3 + libmatroska v1.3.0
Видео
Идентификатор : 1
Формат : AVC
Формат/Информация : Advanced Video Codec
Профиль формата : [email protected]
Параметр CABAC формата : Да
Параметр ReFrames формата : 5 кадров
Идентификатор кодека : V_MPEG4/ISO/AVC
Продолжительность : 1 ч. 38 м.
Битрейт : 9999 Кбит/сек
Ширина : 1920 пикселей
Высота : 800 пикселей
Соотношение сторон : 2,40:1
Частота кадров : 23,976 кадра/сек
Цветовое пространство : YUV
Субдискретизация насыщенности : 4:2:0
Битовая глубина : 8 бит
Тип развёртки : Прогрессивная
Бит/(Пиксели*Кадры) : 0.272
Размер потока : 6,72 Гбайт (87%)
Заголовок : Release by AlexKa
Библиотека кодирования : x264 core 128 r2216 198a7ea
Настройки программы : cabac=1 / ref=5 / deblock=1:0:0 / analyse=0x3:0x133 / me=umh / subme=10 / psy=1 / psy_rd=1.00:0.10 / mixed_ref=1 / me_range=48 / chroma_me=1 / trellis=2 / 8x8dct=1 / cqm=0 / deadzone=21,11 / fast_pskip=0 / chroma_qp_offset=-3 / threads=12 / lookahead_threads=2 / sliced_threads=0 / nr=0 / decimate=0 / interlaced=0 / bluray_compat=0 / constrained_intra=0 / bframes=5 / b_pyramid=2 / b_adapt=2 / b_bias=0 / direct=3 / weightb=1 / open_gop=0 / weightp=2 / keyint=240 / keyint_min=23 / scenecut=40 / intra_refresh=0 / rc=2pass / mbtree=0 / bitrate=9999 / ratetol=1.0 / qcomp=0.70 / qpmin=0 / qpmax=69 / qpstep=4 / cplxblur=20.0 / qblur=0.5 / ip_ratio=1.40 / pb_ratio=1.30 / aq=1:0.80
Язык : English
Аудио #1
Идентификатор : 2
Формат : AC-3
Формат/Информация : Audio Coding 3
Расширение режима : CM (complete main)
Идентификатор кодека : A_AC3
Продолжительность : 1 ч. 38 м.
Вид битрейта : Постоянный
Битрейт : 640 Кбит/сек
Каналы : 6 каналов
Расположение каналов : Front: L C R, Side: L R, LFE
Частота : 48,0 КГц
Битовая глубина : 16 бит
Метод сжатия : С потерями
Размер потока : 451 Мбайт (6%)
Заголовок : Rus
Язык : Russian
Аудио #2
Идентификатор : 3
Формат : AC-3
Формат/Информация : Audio Coding 3
Расширение режима : CM (complete main)
Идентификатор кодека : A_AC3
Продолжительность : 1 ч. 38 м.
Вид битрейта : Постоянный
Битрейт : 640 Кбит/сек
Каналы : 6 каналов
Расположение каналов : Front: L C R, Side: L R, LFE
Частота : 48,0 КГц
Битовая глубина : 16 бит
Метод сжатия : С потерями
Размер потока : 451 Мбайт (6%)
Заголовок : Eng
Язык : English
Текст #1
Идентификатор : 4
Формат : UTF-8
Идентификатор кодека : S_TEXT/UTF8
Идентификатор кодека/Информация : UTF-8 Plain Text
Заголовок : Rus forced
Язык : Russian
Текст #2
Идентификатор : 5
Формат : UTF-8
Идентификатор кодека : S_TEXT/UTF8
Идентификатор кодека/Информация : UTF-8 Plain Text
Заголовок : Rus
Язык : Russian
Текст #3
Идентификатор : 6
Формат : UTF-8
Идентификатор кодека : S_TEXT/UTF8
Идентификатор кодека/Информация : UTF-8 Plain Text
Заголовок : Eng
Язык : English
Меню
00:00:00.000 : :Chapter 01
00:04:45.619 : :Chapter 02
00:09:41.456 : :Chapter 03
00:14:37.668 : :Chapter 04
00:18:10.965 : :Chapter 05
00:20:58.841 : :Chapter 06
00:22:58.919 : :Chapter 07
00:25:31.363 : :Chapter 08
00:30:16.523 : :Chapter 09
00:33:58.411 : :Chapter 10
00:37:38.506 : :Chapter 11
00:39:59.105 : :Chapter 12
00:41:28.569 : :Chapter 13
00:46:36.919 : :Chapter 14
00:49:18.706 : :Chapter 15
00:52:24.933 : :Chapter 16
00:54:13.584 : :Chapter 17
00:58:44.146 : :Chapter 18
01:01:02.742 : :Chapter 19
01:03:14.290 : :Chapter 20
01:07:20.787 : :Chapter 21
01:10:00.154 : :Chapter 22
01:15:11.465 : :Chapter 23
01:18:24.533 : :Chapter 24
01:21:13.410 : :Chapter 25
01:24:53.505 : :Chapter 26
01:30:31.551 : :Chapter 27
01:32:58.865 : :Chapter 28

[Цитировать]



Показать сообщения:    

Текущее время: 04-Дек 07:02

Часовой пояс: UTC + 3


Вы не можете начинать темы
Вы не можете отвечать на сообщения
Вы не можете редактировать свои сообщения
Вы не можете удалять свои сообщения
Вы не можете голосовать в опросах
Вы не можете прикреплять файлы к сообщениям
Вы не можете скачивать файлы

!ВНИМАНИЕ!
Сайт не предоставляет электронные версии произведений, а занимается лишь коллекционированием и каталогизацией ссылок, присылаемых и публикуемых на форуме нашими читателями. Если вы являетесь правообладателем какого-либо представленного материала и не желаете, чтобы ссылка на него находилась в нашем каталоге, свяжитесь с нами, и мы незамедлительно удалим ее. Файлы для обмена на трекере предоставлены пользователями сайта, и администрация не несет ответственности за их содержание. Просьба не заливать файлы, защищенные авторскими правами, а также файлы нелегального содержания!