[ Сегодня идет свободное скачивание без начисления Download ]


Статистика раздачи
Скачал: [ 1 ]
 
   
 
Top  
 
 
Uncharted 4: Путь вора / Uncharted 4: A Thief’s End (2016) Оригинальное название: Uncharted 4: A Thief’s End
Год выпуска: 2016 г.
Разработчик игры: Naughty Dog (США)
Создатель видео: GamingWalkDi
Жанр: Игрофильм
Продолжительность: 06:26:21-Перевод: Дублированный [Официальный]
Субтитры: Русский хардсаб [Экранные надписи и тп.]-Режиссеры: Нил Дракманн, Брюс Страли
В ролях: Нолан Норт, Трой Бэйкер, Ричард МакГонагл, Эмили Роуз, Уоррен Коул, Лора Бэйли, Брэндон Скотт и др.-Описание:
Через три года после событий «Uncharted 3: Иллюзии Дрейка», Натан Дрейк как будто бы покинул мир охотников за сокровищами. Однако судьба бросает ему новый вызов, когда в жизни Дрейка вновь появляется его брат, Сэм, с просьбой спасти его жизнь. Он предлагает Дрейку приключение, от которого тот не может отказаться.
Охотясь за давно потерянными сокровищами капитана Генри Эвери, Сэм и Дрейк отправляются на поиски Либерталии, пиратской утопии глубоко в лесах Мадагаскара. «Uncharted 4: Путь вора» берет игроков в путешествие по всему миру, через поросшие джунглями острова, затерянные города и заснеженные вершины на поиски сокровища Эвери.

Дополнительная информация:
Данное видео позиционируется как ИГРОФИЛЬМ (без комментариев). В игрофильме присутствуют все катсцены + урезанный геймплей (только геймплей который делает игрофильм цельным и сцены плавно перетекающие из геймплея в катсцену). Также хочу отметить и то, что сжимать Uncharted 4 в 1,5 или 2 часа экранного фильма просто невозможно, потеряются многие ключевые сюжетные повороты, да и вообще в игре геймплея кот наплакал, так как в основном в игре преобладают сами катсцены и геймплей плавно переходящий в катсцену.-Качество: WEBRip 1080p
Формат: MP4
Видео: MPEG-4 AVC Video (H.264) / 1920х1080 / 3221 kbps / 29.970 fps
Аудио: AAC, 2 channels, 44.1 kHz, 128 kbps-

MediaInfo

General
Complete name : Uncharted.4.A.Thiefs.End.2016.D.WEBRip.1080p.mp4
Format : MPEG-4
Format profile : Base Media
Codec ID : isom
File size : 9.06 GiB
Duration : 6h 26mn
Overall bit rate : 3 357 Kbps
Writing application : Lavf56.40.101
Video
ID : 1
Format : AVC
Format/Info : Advanced Video Codec
Format profile : High@L4.0
Format settings, CABAC : Yes
Format settings, ReFrames : 2 frames
Codec ID : avc1
Codec ID/Info : Advanced Video Coding
Duration : 6h 26mn
Duration_FirstFrame : -33ms
Bit rate : 3 221 Kbps
Width : 1 920 pixels
Height : 1 080 pixels
Display aspect ratio : 16:9
Frame rate mode : Variable
Frame rate : 29.970 fps
Minimum frame rate : 29.970 fps
Maximum frame rate : 29.990 fps
Color space : YUV
Chroma subsampling : 4:2:0
Bit depth : 8 bits
Scan type : Progressive
Bits/(Pixel*Frame) : 0.052
Stream size : 8.69 GiB (96%)
Color primaries : BT.709
Transfer characteristics : BT.709
Matrix coefficients : BT.709
Color range : Limited
Audio
ID : 2
Format : AAC
Format/Info : Advanced Audio Codec
Format profile : LC
Codec ID : 40
Duration : 6h 26mn
Source duration : 6h 26mn
Bit rate mode : Constant
Bit rate : 126 Kbps
Channel(s) : 2 channels
Channel positions : Front: L R
Sampling rate : 44.1 KHz
Compression mode : Lossy
Stream size : 347 MiB (4%)
Source stream size : 347 MiB (4%)
-

Скриншоты




[Цитировать]



Показать сообщения:    

Текущее время: 07-Дек 15:33

Часовой пояс: UTC + 3


Вы не можете начинать темы
Вы не можете отвечать на сообщения
Вы не можете редактировать свои сообщения
Вы не можете удалять свои сообщения
Вы не можете голосовать в опросах
Вы не можете прикреплять файлы к сообщениям
Вы не можете скачивать файлы

!ВНИМАНИЕ!
Сайт не предоставляет электронные версии произведений, а занимается лишь коллекционированием и каталогизацией ссылок, присылаемых и публикуемых на форуме нашими читателями. Если вы являетесь правообладателем какого-либо представленного материала и не желаете, чтобы ссылка на него находилась в нашем каталоге, свяжитесь с нами, и мы незамедлительно удалим ее. Файлы для обмена на трекере предоставлены пользователями сайта, и администрация не несет ответственности за их содержание. Просьба не заливать файлы, защищенные авторскими правами, а также файлы нелегального содержания!