[ Сегодня идет свободное скачивание без начисления Download ]


Статистика раздачи
Нет
 
   
 
Top  
 
 
Нелегкое счастье
Страна: Россия
Жанр: мелодрама
Год выпуска: 2016
Продолжительность: 01:31:30
Перевод: Не требуется (русский)
Cубтитры: нет
Оригинальная аудиодорожка: русский
Режиссер:
В ролях: Оксана Лесная, Дарья Парменкова, Александра Ермакова, Алексей Коряков, Сергей Мухин, Евгения Кульбачная, Людмила Кучеренко, Андрей Карако, Галина Кухальская, Алиса Мосина
Описание:
«Мы в ответе за тех, кого приручили», - убеждена молодая воспитательница интерната Анна Сергеевна, которая привела в свой дом девочку Лиду из неблагополучной семьи. Полная благих намерений, Анна Сергеевна открыла перед ней мир домашнего уюта, мудрых книг и прекрасной музыки. Шли годы... Из девочки Лиды выросла девушка, в интернате не своя, в чужом доме - гостья. И все убеждения Анны Сергеевны рушатся в один момент, когда она замечает, что ее родной сын Сергей влюбился в интернатовскую замарашку...

Сэмпл
Качество видео: HDTVRip-AVC [HDTV / 1080i]
Формат видео: MKV
Видео кодек: AVC
Аудио кодек: AC3
Видео: 2088 Кбит/сек, 944x530 (16:9), 25 кадр/сек, AVC
Аудио: русский, 192 Кбит/сек, 48 КГц, 16 бит, 2.0, AC3

MediaInfo

Общее
Уникальный идентификатор : 233606356379221131569706656310932376299 (0xAFBEF29C239D051187D17208258D8AEB)
Полное имя : M:1WEB-DLNelegkoe schastbeNelegkoe.schastbe.2016.HDTVRip-AVC.1.45Gb.stalkerok.new-team.mkv
Формат : Matroska
Версия формата : Version 4 / Version 2
Размер файла : 1,46 Гбайт
Продолжительность : 1 ч. 31 м.
Общий поток : 2281 Кбит/сек
Название фильма : Нелегкое счастье (2016) (New-Team) (Rip by Stalker oK)
Дата кодирования : UTC 2016-05-15 18:31:36
Программа кодирования : mkvmerge v8.6.1 ('Flying') 64bit
Библиотека кодирования : libebml v1.3.3 + libmatroska v1.4.4
Видео
Идентификатор : 1
Формат : AVC
Формат/Информация : Advanced Video Codec
Профиль формата : High@L4.1
Параметр CABAC формата : Да
Параметр ReFrames формата : 14 кадров
Идентификатор кодека : V_MPEG4/ISO/AVC
Продолжительность : 1 ч. 31 м.
Битрейт : 2088 Кбит/сек
Ширина : 944 пикселя
Высота : 530 пикселей
Соотношение сторон : 16:9
Режим частоты кадров : Постоянный
Частота кадров : 25,000 кадров/сек
Цветовое пространство : YUV
Субдискретизация насыщенности : 4:2:0
Битовая глубина : 8 бит
Тип развёртки : Прогрессивная
Бит/(Пиксели*Кадры) : 0.167
Размер потока : 1,33 Гбайт (92%)
Заголовок : Нелегкое счастье (2016) (New-Team) (Rip by Stalker oK)
Библиотека кодирования : x264 core 148 r2665kMod a01e339
Настройки программы : cabac=1 / ref=14 / deblock=1:-3:-2 / analyse=0x3:0x133 / me=umh / subme=10 / psy=1 / fade_compensate=0.00 / psy_rd=1.00:0.05 / mixed_ref=1 / me_range=32 / chroma_me=1 / trellis=2 / 8x8dct=1 / cqm=0 / deadzone=21,11 / fast_pskip=0 / chroma_qp_offset=-3 / threads=12 / lookahead_threads=3 / sliced_threads=0 / nr=0 / decimate=0 / interlaced=0 / bluray_compat=0 / constrained_intra=0 / fgo=0 / bframes=14 / b_pyramid=2 / b_adapt=2 / b_bias=0 / direct=3 / weightb=1 / open_gop=0 / weightp=2 / keyint=250 / keyint_min=25 / scenecut=40 / intra_refresh=0 / rc_lookahead=60 / rc=2pass / mbtree=0 / bitrate=2088 / ratetol=1.0 / qcomp=0.65 / qpmin=0 / qpmax=69 / qpstep=4 / cplxblur=20.0 / qblur=0.5 / vbv_maxrate=50000 / vbv_bufsize=62500 / nal_hrd=none / filler=0 / ip_ratio=1.40 / pb_ratio=1.30 / aq=1:0.85
Default : Да
Forced : Нет
Аудио
Идентификатор : 2
Формат : AC-3
Формат/Информация : Audio Coding 3
Расширение режима : CM (complete main)
Параметр Endianness формата : Big
Идентификатор кодека : A_AC3
Продолжительность : 1 ч. 31 м.
Вид битрейта : Постоянный
Битрейт : 192 Кбит/сек
Каналы : 2 канала
Расположение каналов : Front: L R
Частота : 48,0 КГц
Частота кадров : 31,250 кадров/сек (1536 spf)
Метод сжатия : С потерями
Размер потока : 126 Мбайт (8%)
Язык : Russian
Default : Да
Forced : Нет

[Цитировать]



Показать сообщения:    

Текущее время: 08-Дек 15:00

Часовой пояс: UTC + 3


Вы не можете начинать темы
Вы не можете отвечать на сообщения
Вы не можете редактировать свои сообщения
Вы не можете удалять свои сообщения
Вы не можете голосовать в опросах
Вы не можете прикреплять файлы к сообщениям
Вы не можете скачивать файлы

!ВНИМАНИЕ!
Сайт не предоставляет электронные версии произведений, а занимается лишь коллекционированием и каталогизацией ссылок, присылаемых и публикуемых на форуме нашими читателями. Если вы являетесь правообладателем какого-либо представленного материала и не желаете, чтобы ссылка на него находилась в нашем каталоге, свяжитесь с нами, и мы незамедлительно удалим ее. Файлы для обмена на трекере предоставлены пользователями сайта, и администрация не несет ответственности за их содержание. Просьба не заливать файлы, защищенные авторскими правами, а также файлы нелегального содержания!