[ Сегодня идет свободное скачивание без начисления Download ]


Статистика раздачи
Нет
 
   
 
 
 
[sh]Rihanna - Diamonds[/sh]
[gposter=right]http://torrentsclub.org/pictures/7d284579093ee47205...f6.jpg[/gposter]
Исполнитель: Rihanna
Оригинальное название: Diamonds
Год выпуска: 2012
Жанр: R&B
Описание: Клипп Rihann'ы на песню Diamonds
Качество: WebRip
Продолжительность: 00:04:42
Формат: MP4
Видео: AVC, 1920x1080, 23.976 fps, 4235 Kbps
Аудио: AAC, 44.1 KHz, 2 channels, 192 Kbps

Скриншоты



MediaInfo

General
Complete name                            : D:\Файлы\Rihanna - Diamonds.mp4
Format                                   : MPEG-4
Format profile                           : Base Media / Version 2
Codec ID                                 : mp42
File size                                : 149 MiB
Duration                                 : 4mn 42s
Overall bit rate mode                    : Variable
Overall bit rate                         : 4 430 Kbps
Encoded date                             : UTC 2012-11-07 16:29:34
Tagged date                              : UTC 2012-11-07 16:29:34
Video
ID                                       : 1
Format                                   : AVC
Format/Info                              : Advanced Video Codec
Format profile                           : [email protected]
Format settings, CABAC                   : Yes
Format settings, ReFrames                : 1 frame
Format settings, GOP                     : M=1, N=48
Codec ID                                 : avc1
Codec ID/Info                            : Advanced Video Coding
Duration                                 : 4mn 42s
Bit rate                                 : 4 235 Kbps
Maximum bit rate                         : 14.2 Mbps
Width                                    : 1 920 pixels
Height                                   : 1 080 pixels
Display aspect ratio                     : 16:9
Frame rate mode                          : Constant
Frame rate                               : 23.976 fps
Color space                              : YUV
Chroma subsampling                       : 4:2:0
Bit depth                                : 8 bits
Scan type                                : Progressive
Bits/(Pixel*Frame)                       : 0.085
Stream size                              : 143 MiB (96%)
Tagged date                              : UTC 2012-11-07 16:29:35
Audio
ID                                       : 2
Format                                   : AAC
Format/Info                              : Advanced Audio Codec
Format profile                           : LC
Codec ID                                 : 40
Duration                                 : 4mn 42s
Bit rate mode                            : Variable
Bit rate                                 : 192 Kbps
Maximum bit rate                         : 201 Kbps
Channel(s)                               : 2 channels
Channel positions                        : Front: L R
Sampling rate                            : 44.1 KHz
Compression mode                         : Lossy
Stream size                              : 6.47 MiB (4%)
Title                                    : IsoMedia File Produced by Google, 5-11-2011
Encoded date                             : UTC 2012-11-07 16:29:35
Tagged date                              : UTC 2012-11-07 16:29:35


Последний раз редактировалось: Архитектор (2013-01-07 11:09), всего редактировалось 2 раз(а)

[Цитировать]

Сделайте свои собственные скриншоты. Как сделать скриншот ? (Видео)

[Цитировать]

6141Сделайте свои собственные скриншоты. Как сделать скриншот ? (Видео)
Скриншоты мои. Ставил временно.

[Цитировать]



Показать сообщения:    

Текущее время: 06-Дек 06:00

Часовой пояс: UTC + 3


Вы не можете начинать темы
Вы не можете отвечать на сообщения
Вы не можете редактировать свои сообщения
Вы не можете удалять свои сообщения
Вы не можете голосовать в опросах
Вы не можете прикреплять файлы к сообщениям
Вы не можете скачивать файлы

!ВНИМАНИЕ!
Сайт не предоставляет электронные версии произведений, а занимается лишь коллекционированием и каталогизацией ссылок, присылаемых и публикуемых на форуме нашими читателями. Если вы являетесь правообладателем какого-либо представленного материала и не желаете, чтобы ссылка на него находилась в нашем каталоге, свяжитесь с нами, и мы незамедлительно удалим ее. Файлы для обмена на трекере предоставлены пользователями сайта, и администрация не несет ответственности за их содержание. Просьба не заливать файлы, защищенные авторскими правами, а также файлы нелегального содержания!