[ Сегодня идет свободное скачивание без начисления Download ]


Статистика раздачи
Нет
 
   
 
 
 
[sh]Hollywood Undead - We Are[/sh]
[gposter=right]http://torrentsclub.org/pictures/4acb395839b73e7300...67.jpg[/gposter]

Исполнитель: Hollywood Undead
Оригинальное название: We Are
Год выпуска: 2012
Жанр: Rapcore
Описание: Клип группы Hollywood Undead на песню We Are.
Качество: WebRip
Продолжительность: 00:04:06
Формат: MP4
Видео: 1920x1080,24fps,AVC ~4 299 kbps avg, 0.24 bit/pixel
Аудио: 44.1 kHz, AAC, 2 ch, ~192.00 kbps avg

Скриншоты



MediaInfo

General
Complete name                            : D:\Файлы\Hollywood Undead - We Are.mp4
Format                                   : MPEG-4
Format profile                           : Base Media / Version 2
Codec ID                                 : mp42
File size                                : 132 MiB
Duration                                 : 4mn 6s
Overall bit rate mode                    : Variable
Overall bit rate                         : 4 494 Kbps
Encoded date                             : UTC 2012-12-08 18:13:31
Tagged date                              : UTC 2012-12-08 18:13:31
Video
ID                                       : 1
Format                                   : AVC
Format/Info                              : Advanced Video Codec
Format profile                           : High@L4.0
Format settings, CABAC                   : Yes
Format settings, ReFrames                : 1 frame
Codec ID                                 : avc1
Codec ID/Info                            : Advanced Video Coding
Duration                                 : 4mn 6s
Bit rate                                 : 4 299 Kbps
Maximum bit rate                         : 14.0 Mbps
Width                                    : 1 920 pixels
Height                                   : 1 080 pixels
Display aspect ratio                     : 16:9
Frame rate mode                          : Constant
Frame rate                               : 23.976 fps
Color space                              : YUV
Chroma subsampling                       : 4:2:0
Bit depth                                : 8 bits
Scan type                                : Progressive
Bits/(Pixel*Frame)                       : 0.086
Stream size                              : 126 MiB (96%)
Tagged date                              : UTC 2012-12-08 18:13:31
Audio
ID                                       : 2
Format                                   : AAC
Format/Info                              : Advanced Audio Codec
Format profile                           : LC
Codec ID                                 : 40
Duration                                 : 4mn 6s
Bit rate mode                            : Variable
Bit rate                                 : 192 Kbps
Maximum bit rate                         : 203 Kbps
Channel(s)                               : 2 channels
Channel positions                        : Front: L R
Sampling rate                            : 44.1 KHz
Compression mode                         : Lossy
Stream size                              : 5.63 MiB (4%)
Title                                    : IsoMedia File Produced by Google, 5-11-2011
Encoded date                             : UTC 2012-12-08 18:13:31
Tagged date                              : UTC 2012-12-08 18:13:31

[Цитировать]



Показать сообщения:    

Текущее время: 08-Дек 03:10

Часовой пояс: UTC + 3


Вы не можете начинать темы
Вы не можете отвечать на сообщения
Вы не можете редактировать свои сообщения
Вы не можете удалять свои сообщения
Вы не можете голосовать в опросах
Вы не можете прикреплять файлы к сообщениям
Вы не можете скачивать файлы

!ВНИМАНИЕ!
Сайт не предоставляет электронные версии произведений, а занимается лишь коллекционированием и каталогизацией ссылок, присылаемых и публикуемых на форуме нашими читателями. Если вы являетесь правообладателем какого-либо представленного материала и не желаете, чтобы ссылка на него находилась в нашем каталоге, свяжитесь с нами, и мы незамедлительно удалим ее. Файлы для обмена на трекере предоставлены пользователями сайта, и администрация не несет ответственности за их содержание. Просьба не заливать файлы, защищенные авторскими правами, а также файлы нелегального содержания!