[ Сегодня идет свободное скачивание без начисления Download ]


Статистика раздачи
Нет
 
   
 
Top  
 
 
-Под прикрытием (2012) WEB-DLRip (серии 1-12 из 12)- Производство: Россия / "DT Production"
Жанр: криминал
Режиссер: Тимур Алпатов
Актеры: Сергей Газаров, Владимир Яглыч, Владислав Котлярский, Гурам Баблишвили, Софья Торосян, Максим Важов, Карина Разумовская, Михаил Солодко, Эдуард Рябинин, Денис Кудрявцев, Анатолий Отраднов, Егор Вадов, Глория Августинович и др.
Описание:
Олегу Резвову не очень-то посчастливилось пожить своей жизнью. Сначала «по малолетке» отсидел в тюрьме за преступление, которое не совершал. Потом, после армии, поступил в ФСБ, где его жизнью, в общем-то, распоряжаются старшие по званию. И вот, новое задание: под видом бывшего уголовника внедриться в преступный бизнес майкопской группировки и обезвредить её. Внедриться — это значит полностью жить чужой жизнью и, практически, стать другим человеком. Но рядом бурлит обычная прекрасная жизнь, полная людей, верящих в добро, чистоту, любовь, где есть дом, семья, дети… Сложную операцию готовят и прикрывают многие люди, но свою, обычную жизнь, нельзя прожить под прикрытием. В этой жизни его хотят видеть самим собой, таким, какой он есть. Особенно те, кто его любит.

Возраст: 16+ (зрителям, достигшим 16 лет)
Продолжительность: ~00:50:00 серия
Качество видео: WEB-DLRip
Видео: XVID, 720x400 (16:9), ~1800 Kbps
Аудио: AC3, 2 ch, 192 Kbps, CBR

MediaInfo:

Общее
Полное имя                               : F:\DOWNLOADS\Под прикрытием (2012) WEB-DLRip\Под прикрытием - 01 серия.avi
Формат                                   : AVI
Формат/Информация                        : Audio Video Interleave
Размер файла                             : 731 Мбайт
Продолжительность                        : 51 м.
Общий поток                              : 2002 Кбит/сек
Программа кодирования                    : VirtualDubMod 1.5.10.3 | [url=http://www.virtualdub-fr.org]www.virtualdub-fr.org[/url] || (build 2550/release)
Библиотека кодирования                   : VirtualDubMod build 2550/release
Видео
Идентификатор                            : 0
Формат                                   : MPEG-4 Visual
Профиль формата                          : Advanced Simple@L5
Параметр BVOP формата                    : 1
Параметр QPel формата                    : Нет
Параметр GMC формата                     : Без точки перехода
Параметр матрицы формата                 : Default (MPEG)
Идентификатор кодека                     : XVID
Идентификатор кодека/Подсказка           : XviD
Продолжительность                        : 51 м.
Битрейт                                  : 1800 Кбит/сек
Ширина                                   : 720 пикселей
Высота                                   : 400 пикселей
Соотношение сторон                       : 16:9
Частота кадров                           : 25,000 кадров/сек
Цветовое пространство                    : YUV
Субдискретизация насыщенности            : 4:2:0
Битовая глубина                          : 8 бит
Тип развёртки                            : Прогрессивная
Метод сжатия                             : С потерями
Бит/(Пиксели*Кадры)                      : 0.250
Размер потока                            : 657 Мбайт (90%)
Библиотека кодирования                   : XviD 73
Аудио
Идентификатор                            : 1
Формат                                   : AC-3
Формат/Информация                        : Audio Coding 3
Расширение режима                        : CM (complete main)
Параметр Endianness формата              : Big
Идентификатор кодека                     : 2000
Продолжительность                        : 51 м.
Вид битрейта                             : Постоянный
Битрейт                                  : 192 Кбит/сек
Каналы                                   : 2 канала
Расположение каналов                     : Front: L R
Частота                                  : 48,0 КГц
Частота кадров                           : 31,250 кадров/сек (1536 spf)
Метод сжатия                             : С потерями
Размер потока                            : 70,1 Мбайт (10%)
Выравнивание                             : Разделение по промежуткам
Продолжительность промежутка             : 40  мс. (1,00 видеокадр)
Время предзагрузки промежутка            : 500  мс.
Скриншоты:

[Цитировать]

Под прикрытием (2012) (серии 1-12 из 12)
Описание:
Олегу Резвову не очень-то посчастливилось пожить своей жизнью. Сначала «по малолетке» отсидел в тюрьме за преступление, которое не совершал. Потом, после армии, поступил в ФСБ, ...
Что за хрень ! какая нахрен армия после зоны, хоть и по малолетке ! Фуфло !!! А тем паче типа поступил в ФСБ . Ипануться!!! Совсем сценарист с башней не дружит, он вообще реальной жизнью жил когда нибудь !!!

[Цитировать]



Показать сообщения:    

Текущее время: 10-Дек 17:44

Часовой пояс: UTC + 3


Вы не можете начинать темы
Вы не можете отвечать на сообщения
Вы не можете редактировать свои сообщения
Вы не можете удалять свои сообщения
Вы не можете голосовать в опросах
Вы не можете прикреплять файлы к сообщениям
Вы не можете скачивать файлы

!ВНИМАНИЕ!
Сайт не предоставляет электронные версии произведений, а занимается лишь коллекционированием и каталогизацией ссылок, присылаемых и публикуемых на форуме нашими читателями. Если вы являетесь правообладателем какого-либо представленного материала и не желаете, чтобы ссылка на него находилась в нашем каталоге, свяжитесь с нами, и мы незамедлительно удалим ее. Файлы для обмена на трекере предоставлены пользователями сайта, и администрация не несет ответственности за их содержание. Просьба не заливать файлы, защищенные авторскими правами, а также файлы нелегального содержания!