[ Сегодня идет свободное скачивание без начисления Download ]


Статистика раздачи
Скачал: [ 1 ]
 
   
 
Top  
 
 
-Под прикрытием (2012) WEB-DLRip [H.264/720p-LQ] (серии 1-12 из 12)- Производство: Россия / "DT Production"
Жанр: криминал
Режиссер: Тимур Алпатов
Актеры: Сергей Газаров, Владимир Яглыч, Владислав Котлярский, Гурам Баблишвили, Софья Торосян, Максим Важов, Карина Разумовская, Михаил Солодко, Эдуард Рябинин, Денис Кудрявцев, Анатолий Отраднов, Егор Вадов, Глория Августинович и др.
Описание:
Олегу Резвову не очень-то посчастливилось пожить своей жизнью. Сначала «по малолетке» отсидел в тюрьме за преступление, которое не совершал. Потом, после армии, поступил в ФСБ, где его жизнью, в общем-то, распоряжаются старшие по званию. И вот, новое задание: под видом бывшего уголовника внедриться в преступный бизнес майкопской группировки и обезвредить её. Внедриться — это значит полностью жить чужой жизнью и, практически, стать другим человеком. Но рядом бурлит обычная прекрасная жизнь, полная людей, верящих в добро, чистоту, любовь, где есть дом, семья, дети… Сложную операцию готовят и прикрывают многие люди, но свою, обычную жизнь, нельзя прожить под прикрытием. В этой жизни его хотят видеть самим собой, таким, какой он есть. Особенно те, кто его любит.

Возраст: 16+ (зрителям, достигшим 16 лет)
Продолжительность: ~00:50:00 серия
Качество видео: WEB-DLRip
Видео: AVC/H.264, 1280x720 (16:9), ~2500 Kbps
Аудио: AC3, 2 ch, 192 Kbps, CBR

MediaInfo:

Общее
Уникальный идентификатор                 : 241856287220321381789723966260588511098 (0xB5F3D39AB8627089A013CE15AC12FF7A)
Полное имя                               : F:\DOWNLOADS\Под прикрытием (2012) WEB-DLRip 720\Под прикрытием - 01 серия.mkv
Формат                                   : Matroska
Версия формата                           : Version 2
Размер файла                             : 981 Мбайт
Продолжительность                        : 51 м.
Общий поток                              : 2686 Кбит/сек
Дата кодирования                         : UTC 2016-05-14 04:58:29
Программа кодирования                    : mkvmerge v7.8.0 ('River Man') 32bit built on Apr  3 2015 12:11:22
Библиотека кодирования                   : libebml v1.3.1 + libmatroska v1.4.2
Видео
Идентификатор                            : 1
Формат                                   : AVC
Формат/Информация                        : Advanced Video Codec
Профиль формата                          : [email protected]
Параметр CABAC формата                   : Да
Параметр ReFrames формата                : 3 кадра
Идентификатор кодека                     : V_MPEG4/ISO/AVC
Продолжительность                        : 51 м.
Битрейт                                  : 2500 Кбит/сек
Ширина                                   : 1280 пикселей
Высота                                   : 720 пикселей
Соотношение сторон                       : 16:9
Режим частоты кадров                     : Постоянный
Частота кадров                           : 25,000 кадров/сек
Цветовое пространство                    : YUV
Субдискретизация насыщенности            : 4:2:0
Битовая глубина                          : 8 бит
Тип развёртки                            : Прогрессивная
Бит/(Пиксели*Кадры)                      : 0.109
Размер потока                            : 892 Мбайт (91%)
Библиотека кодирования                   : x264 core 130
Настройки программы                      : cabac=1 / ref=4 / deblock=1:0:0 / analyse=0x3:0x133 / me=umh / subme=9 / psy=1 / psy_rd=1.00:0.00 / mixed_ref=1 / me_range=24 / chroma_me=1 / trellis=2 / 8x8dct=1 / cqm=0 / deadzone=21,11 / fast_pskip=1 / chroma_qp_offset=-2 / threads=2 / lookahead_threads=1 / sliced_threads=0 / nr=0 / decimate=1 / interlaced=0 / bluray_compat=0 / constrained_intra=0 / bframes=9 / b_pyramid=1 / b_adapt=2 / b_bias=0 / direct=3 / weightb=1 / open_gop=0 / weightp=2 / keyint=100 / keyint_min=10 / scenecut=40 / intra_refresh=0 / rc_lookahead=100 / rc=2pass / mbtree=1 / bitrate=2500 / ratetol=1.0 / qcomp=0.60 / qpmin=0 / qpmax=69 / qpstep=4 / cplxblur=20.0 / qblur=0.5 / vbv_maxrate=4096 / vbv_bufsize=2048 / nal_hrd=none / ip_ratio=1.40 / aq=1:1.00
Язык                                     : Russian
Default                                  : Да
Forced                                   : Нет
Аудио
Идентификатор                            : 2
Формат                                   : AC-3
Формат/Информация                        : Audio Coding 3
Расширение режима                        : CM (complete main)
Параметр Endianness формата              : Big
Идентификатор кодека                     : A_AC3
Продолжительность                        : 51 м.
Вид битрейта                             : Постоянный
Битрейт                                  : 192 Кбит/сек
Каналы                                   : 2 канала
Расположение каналов                     : Front: L R
Частота                                  : 48,0 КГц
Частота кадров                           : 31,250 кадров/сек (1536 spf)
Метод сжатия                             : С потерями
Размер потока                            : 70,1 Мбайт (7%)
Default                                  : Да
Forced                                   : Нет
Скриншоты:

[Цитировать]

Под прикрытием (2012) (серии 1-12 из 12)
Описание:
Олегу Резвову не очень-то посчастливилось пожить своей жизнью. Сначала «по малолетке» отсидел в тюрьме за преступление, которое не совершал. Потом, после армии, поступил в ФСБ, ...
Что за хрень ! какая нахрен армия после зоны, хоть и по малолетке ! Фуфло !!! А тем паче типа поступил в ФСБ . Ипануться!!! Совсем сценарист с башней не дружит, он вообще реальной жизнью жил когда нибудь !!!

[Цитировать]



Показать сообщения:    

Текущее время: 04-Дек 15:12

Часовой пояс: UTC + 3


Вы не можете начинать темы
Вы не можете отвечать на сообщения
Вы не можете редактировать свои сообщения
Вы не можете удалять свои сообщения
Вы не можете голосовать в опросах
Вы не можете прикреплять файлы к сообщениям
Вы не можете скачивать файлы

!ВНИМАНИЕ!
Сайт не предоставляет электронные версии произведений, а занимается лишь коллекционированием и каталогизацией ссылок, присылаемых и публикуемых на форуме нашими читателями. Если вы являетесь правообладателем какого-либо представленного материала и не желаете, чтобы ссылка на него находилась в нашем каталоге, свяжитесь с нами, и мы незамедлительно удалим ее. Файлы для обмена на трекере предоставлены пользователями сайта, и администрация не несет ответственности за их содержание. Просьба не заливать файлы, защищенные авторскими правами, а также файлы нелегального содержания!