[ Сегодня идет свободное скачивание без начисления Download ]


Статистика раздачи
Буду качать: [ 1 ]
 
   
 
Top  
 
 
- Боги Египта / Gods of Egypt (2016) WEB-DL [H.264/720p-LQ] - Производство: США / TIK Films, Mystery Clock Cinema, Summit Entertainment
Жанр: Фэнтези, Приключения, Боевик
Режиссер: Алекс Пройас
Актеры: Николай Костер-Валдау, Джерард Батлер, Джеффри Раш, Брентон Туэйтс, Эбби Ли, Кортни Итон
Описание:
Некогда мирное и процветающее египетское царство погружается в хаос: беспощадный бог тьмы Сет убивает своего брата Осириса и узурпирует трон. Вызов ему неожиданно бросает простой смертный, находчивый молодой вор. Чтобы вернуть к жизни свою прекрасную возлюбленную, ему приходится заручиться поддержкой могущественного и мстительного бога Гора. Лишь выдержав испытание на прочность и принеся в жертву все самое дорогое, им удастся противостоять Сету и его приспешникам в мире живых и мире мертвых.

Возраст: 16+ (зрителям, достигшим 16 лет)
Рейтинг MPAA: PG-13 (детям до 13 лет просмотр нежелателен)
Дата мировой премьеры: 24 февраля 2016
Дата премьеры в России: 25 февраля 2016, «Централ Партнершип»
Продолжительность: 02:06:50
Качество видео: WEB-DL
Перевод: Дублированный (iTunes)
Субтитры: Отсутствуют
Видео: AVC, 1280x532 (2.40:1), 24.000 fps, 3 913 Kbps (0.239 bit/pixel)
Аудио: AC-3, 48.0 KHz, 6 ch, 384 Kbps, CBR

Mediainfo:

Общее
Уникальный идентификатор                 : 181743379418282795981116568205553310686 (0x88BA806CE4B07C579A0AF16E0B301BDE)
Полное имя                               : D:\Боги Египта - Gods of Egypt (2016)_WEB-DL.720p.mkv
Формат                                   : Matroska
Версия формата                           : Version 4 / Version 2
Размер файла                             : 3,88 Гбайт
Продолжительность                        : 2 ч. 6 м.
Общий поток                              : 4384 Кбит/сек
Дата кодирования                         : UTC 2016-05-16 18:07:38
Программа кодирования                    : mkvmerge v8.3.0 ('Over the Horizon') 64bit
Библиотека кодирования                   : libebml v1.3.1 + libmatroska v1.4.2
DURATION                                 : 02:06:50.208000000
NUMBER_OF_FRAMES                         : 237819
NUMBER_OF_BYTES                          : 365289984
_STATISTICS_WRITING_APP                  : mkvmerge v8.3.0 ('Over the Horizon') 64bit
_STATISTICS_WRITING_DATE_UTC             : 2016-05-16 18:07:38
_STATISTICS_TAGS                         : BPS DURATION NUMBER_OF_FRAMES NUMBER_OF_BYTES
Видео
Идентификатор                            : 1
Формат                                   : AVC
Формат/Информация                        : Advanced Video Codec
Профиль формата                          : [url=mailto:[email protected]][email protected][/url]
Параметр CABAC формата                   : Нет
Параметр ReFrames формата                : 2 кадра
Идентификатор кодека                     : V_MPEG4/ISO/AVC
Продолжительность                        : 2 ч. 6 м.
Битрейт                                  : 3913 Кбит/сек
Ширина                                   : 1280 пикселей
Высота                                   : 532 пикселя
Соотношение сторон                       : 2,40:1
Режим частоты кадров                     : Постоянный
Частота кадров                           : 24,000 кадра/сек
Цветовое пространство                    : YUV
Субдискретизация насыщенности            : 4:2:0
Битовая глубина                          : 8 бит
Тип развёртки                            : Прогрессивная
Бит/(Пиксели*Кадры)                      : 0.239
Размер потока                            : 3,47 Гбайт (89%)
Язык                                     : English
Default                                  : Да
Forced                                   : Нет
Цветовой диапазон                        : Limited
Основные цвета                           : BT.709
Характеристики трансфера                 : BT.709
Коэффициенты матрицы                     : BT.709
Аудио
Идентификатор                            : 2
Формат                                   : AC-3
Формат/Информация                        : Audio Coding 3
Расширение режима                        : CM (complete main)
Параметр Endianness формата              : Big
Идентификатор кодека                     : A_AC3
Продолжительность                        : 2 ч. 6 м.
Вид битрейта                             : Постоянный
Битрейт                                  : 384 Кбит/сек
Каналы                                   : 6 каналов
Расположение каналов                     : Front: L C R, Side: L R, LFE
Частота                                  : 48,0 КГц
Битовая глубина                          : 16 бит
Метод сжатия                             : С потерями
Размер потока                            : 348 Мбайт (9%)
Язык                                     : Russian
Default                                  : Да
Forced                                   : Нет
Меню
00:00:00.000                             : en:Глава 1
00:05:48.000                             : en:Глава 2
00:11:38.916                             : en:Глава 3
00:17:54.874                             : en:Глава 4
00:23:43.540                             : en:Глава 5
00:29:26.373                             : en:Глава 6
00:35:03.498                             : en:Глава 7
00:41:23.039                             : en:Глава 8
00:46:25.539                             : en:Глава 9
00:53:57.872                             : en:Глава 10
00:59:23.080                             : en:Глава 11
01:06:10.121                             : en:Глава 12
01:13:11.787                             : en:Глава 13
01:19:48.662                             : en:Глава 14
01:28:10.662                             : en:Глава 15
01:36:03.995                             : en:Глава 16
01:41:55.536                             : en:Глава 17
01:48:43.452                             : en:Глава 18
01:54:08.785                             : en:Глава 19
Скриншоты:

[Цитировать]

заценим спасибо!!!

[Цитировать]

Спасибо.
Красивая легенда. Красивый фильм, одни спецэффекты.

- Где глаз Гора ?
- Спроси у своих козлов...

[Цитировать]



Показать сообщения:    

Текущее время: 06-Дек 15:16

Часовой пояс: UTC + 3


Вы не можете начинать темы
Вы не можете отвечать на сообщения
Вы не можете редактировать свои сообщения
Вы не можете удалять свои сообщения
Вы не можете голосовать в опросах
Вы не можете прикреплять файлы к сообщениям
Вы не можете скачивать файлы

!ВНИМАНИЕ!
Сайт не предоставляет электронные версии произведений, а занимается лишь коллекционированием и каталогизацией ссылок, присылаемых и публикуемых на форуме нашими читателями. Если вы являетесь правообладателем какого-либо представленного материала и не желаете, чтобы ссылка на него находилась в нашем каталоге, свяжитесь с нами, и мы незамедлительно удалим ее. Файлы для обмена на трекере предоставлены пользователями сайта, и администрация не несет ответственности за их содержание. Просьба не заливать файлы, защищенные авторскими правами, а также файлы нелегального содержания!