[ Сегодня идет свободное скачивание без начисления Download ]


Статистика раздачи
Буду качать: [ 1 ]
 
   
 
Top  
 
 
Геймеры: Эра АНТОНа / Avengers: Age of Ultron Информация о фильме
Название: Геймеры: Эра АНТОНа
Оригинальное название: Avengers: Age of Ultron
Год выхода: 2015 / 2016
Жанр: Пародия, комедия, юмористический перевод
Режиссер: Джосс Уидон, DrSlon
В ролях: Роберт Дауни мл., Крис Хемсворт, Крис Эванс, Скарлетт Йоханссон, Марк Руффало, Джереми Реннер, Аарон Тейлор-Джонсон, Элизабет Олсен, Джеймс Спэйдер, Сэмюэл Л. Джексон
О фильме:
Смешной монтажный перевод фильма "Мстители: Эра Альтрона".
Команда геймеров-мутантов во главе с жуликоватым миллиардером и изобретателем Толиком Старским решила награбить ништяков и подзаработать на их продаже. Первой разгромлена лаборатория Тугуза Шовгена, расположенная в северокавказской республике Хазария. При попытке взломать захваченное программное обеспечение был выпущен на волю искусственный интеллект АНТОН, решивший уничтожить человечество. И теперь геймерам нужно разобраться с АНТОНом и спасти мир…
Страна: США
Продолжительность: 01:42:52
Перевод: любительский многоголосый (смешной перевод студии Slon films)
Файл
Качество: BDRip 720p
Формат: MKV
Видео: MPEG-4 AVC, 1280x536, 5 869 Kbps, 29.970 fps
Аудио: 44.1 kHz, AAC, 2 ch, ~128 kbps
Семпл
Примечание автора раздачи:
Релиз от Альянса Вольных Переводчиков.
Видеоряд оригинала урезан в угоду пародийному сюжету.
Каким образом геймеры обрели суперсилу, кто такой Илья из Мурома (Тор) и откуда у него супер-киянка (молот Тора) можно узнать из фильма-пародии «Гаджеты: Вечная батарейка».

Скриншоты

MI

General
Unique ID : 168348648403719580577546155723716462494 (0x7EA6C532C2870C1E037BA147C20E879E)
Complete name : D:__==film_FAge of ANTON.mkv
Format : Matroska
Format version : Version 2
File size : 4.40 GiB
Duration : 1h 42mn
Overall bit rate : 6 119 Kbps
Writing application : Lavf51.12.1
Writing library : Lavf51.12.1
Video
ID : 1
Format : AVC
Format/Info : Advanced Video Codec
Format profile : [email protected]
Format settings, CABAC : No
Format settings, ReFrames : 1 frame
Format settings, GOP : M=1, N=12
Codec ID : V_MPEG4/ISO/AVC
Duration : 1h 42mn
Bit rate : 5 869 Kbps
Width : 1 280 pixels
Height : 536 pixels
Display aspect ratio : 2.40:1
Frame rate mode : Constant
Frame rate : 29.970 (30000/1001) fps
Color space : YUV
Chroma subsampling : 4:2:0
Bit depth : 8 bits
Scan type : Progressive
Bits/(Pixel*Frame) : 0.285
Stream size : 4.22 GiB (96%)
Language : English
Default : Yes
Forced : No
Audio
ID : 2
Format : MPEG Audio
Format version : Version 1
Format profile : Layer 3
Mode : Joint stereo
Mode extension : MS Stereo
Codec ID : A_MPEG/L3
Codec ID/Hint : MP3
Duration : 1h 42mn
Bit rate mode : Constant
Bit rate : 128 Kbps
Channel(s) : 2 channels
Sampling rate : 44.1 KHz
Compression mode : Lossy
Stream size : 94.2 MiB (2%)
Writing library : LAME3.97
Language : English
Default : Yes
Forced : No

[Цитировать]



Показать сообщения:    

Текущее время: 06-Дек 22:49

Часовой пояс: UTC + 3


Вы не можете начинать темы
Вы не можете отвечать на сообщения
Вы не можете редактировать свои сообщения
Вы не можете удалять свои сообщения
Вы не можете голосовать в опросах
Вы не можете прикреплять файлы к сообщениям
Вы не можете скачивать файлы

!ВНИМАНИЕ!
Сайт не предоставляет электронные версии произведений, а занимается лишь коллекционированием и каталогизацией ссылок, присылаемых и публикуемых на форуме нашими читателями. Если вы являетесь правообладателем какого-либо представленного материала и не желаете, чтобы ссылка на него находилась в нашем каталоге, свяжитесь с нами, и мы незамедлительно удалим ее. Файлы для обмена на трекере предоставлены пользователями сайта, и администрация не несет ответственности за их содержание. Просьба не заливать файлы, защищенные авторскими правами, а также файлы нелегального содержания!