[ Сегодня идет свободное скачивание без начисления Download ]


Статистика раздачи
Нет
 
   
 
Top  
 
 
Меркурий в опасностиMercury Rising«Кто-то знает очень много»- Страна: США
Жанр: боевик, триллер, драма, криминал
Год выпуска: 1998
Продолжительность: 01:51:28
Перевод: Профессиональный (полное дублирование), 2 x Профессиональный (многоголосый, закадровый), Профессиональный (двухголосый, закадровый), 3 x Авторский, Любительский, Оригинальный
Субтитры: русские (Forced), русские, английские.-Режиссер: Харольд Беккер / Harold Becker-В ролях: Брюс Уиллис (Art Jeffries), Алек Болдуин (Nick Kudrow), Мико Хьюз (Simon Lynch), Чи МакБрайд (Tommy B. Jordan), Ким Диккенс (Stacey), Роберт Стэнтон (Dean Crandell), Бодхи Элфмэн (Leo Pedranski), Кэрри Престон (Emily Lang), Линдси Гинтер (Peter Burrell), Петер Стормаре (Shayes), Кевин Конуэй (Lomax), Джон Кэрролл Линч (Martin Lynch)
Дублёры: Вадим Андреев (Art Jeffries), Владимир Еремин (Nick Kudrow), Николай Быстров (Simon Lynch), Борис Быстров (Tommy B. Jordan), Татьяна Весёлкина (Stacey), Алексей Мясников (Dean Crandell), Леонид Белозорович (Leo Pedranski), Людмила Шувалова (Emily Lang), Дальвин Щербаков (Peter Burrell), Андрей Казанцев, Виктор Незнанов, Виктор Петров (Lomax)-Описание: Бывший сотрудник ФБР Арт Джеффрис защищает от безжалостных федеральных агентов Саймона, девятилетнего мальчика, сумевшего вскрыть новый, «не поддающийся дешифровке» правительственный код. Саймон может читать «Меркурий», новейший шифровальный код, так же легко, как другие дети читают книги. Эти способности ставят под угрозу сам смысл существования новейшей разработки стоимостью миллиард долларов, особенно если враги Соединенных Штатов узнают о необыкновенном мальчике и захватят его. Глава Программы Ник Кудроу приказывает устранить «угрозу безопасности страны», но он не учитывает, что в дело вмешивается Джеффрис. Преследуемые кровавыми убийцами, Саймон и Джеффрис понимают, что никому доверять нельзя. Время работает не на них, и детектив решает, что единственная надежда на спасение - использовать удивительные способности Саймона и призвать убийц к ответу.-
MPAA: R - Лицам до 17 лет обязательно присутствие взрослого-Семпл-Качество: BDRip
Контейнер: MKV
Видео: AVC, 1280x544 (2.35:1), 4520 kbps, 23,976 fps, 0,271 bpp
Аудио №1: русский / AC3 / 2.0 / 48 kHz / 192 kbps / Дубляж
Аудио №2: русский / AC3 / 5.1 / 48 kHz / 448 kbps / MVO
Аудио №3: русский / AC3 / 2.0 / 48 kHz / 192 kbps / MVO ( Первый Канал )
Аудио №4: русский / AC3 / 2.0 / 48 kHz / 192 kbps / DVO ( Премьер Видео )
Аудио №5: русский / AC3 / 2.0 / 48 kHz / 192 kbps / AVO ( Антонов )
Аудио №6: русский / AC3 / 5.1 / 48 kHz / 448 kbps / AVO ( Живов )
Аудио №7: русский / AC3 / 5.1 / 48 kHz / 448 kbps / AVO ( Назаров )
Аудио №8: русский / AC3 / 2.0 / 48 kHz / 192 kbps / VO ( Неизвестный )
Аудио №9: английский / AC3 / 5.1 / 48 kHz / 640 kbps
Навигация по главам: есть-

Media Info

General
--------------------------------------------------------------------------------
x264 [info]: frame I:1149 Avg QP:14.27 size:100389
x264 [info]: frame P:31926 Avg QP:16.72 size: 40480
x264 [info]: frame B:127100 Avg QP:18.44 size: 18622
--------------------------------------------------------------------------------
Format : Matroska
Format version : Version 2
File size : 5.81 GiB
Duration : 1h 51mn
Overall bit rate : 7 461 Kbps
Movie name : = Меркурий в опасности / Mercury Rising (1998) BDRip 720p by SC Kosmos =
Encoded date : UTC 2016-03-04 17:55:21
Writing application : mkvmerge v5.8.0 ('No Sleep / Pillow') built on Sep 2 2012 15:37:04
Writing library : libebml v1.2.3 + libmatroska v1.3.0
Attachment : Yes
Video
ID : 1
Format : AVC
Format/Info : Advanced Video Codec
Format profile : High@L4.1
Format settings, CABAC : Yes
Format settings, ReFrames : 10 frames
Codec ID : V_MPEG4/ISO/AVC
Duration : 1h 51mn
Bit rate : 4 520 Kbps
Width : 1 280 pixels
Height : 544 pixels
Display aspect ratio : 2.35:1
Frame rate : 23.976 fps
Color space : YUV
Chroma subsampling : 4:2:0
Bit depth : 8 bits
Scan type : Progressive
Bits/(Pixel*Frame) : 0.271
Stream size : 3.40 GiB (59%)
Title : Меркурий в опасности / Mercury Rising (1998) BDRip 720p by SC Kosmos
Writing library : x264 core 146 r2538 121396c
Encoding settings : cabac=1 / ref=10 / deblock=1:-3:-3 / analyse=0x3:0x113 / me=umh / subme=11 / psy=1 / psy_rd=1.00:0.00 / mixed_ref=1 / me_range=32 / chroma_me=1 / trellis=2 / 8x8dct=1 / cqm=0 / deadzone=21,11 / fast_pskip=0 / chroma_qp_offset=-2 / threads=12 / lookahead_threads=3 / sliced_threads=0 / nr=0 / decimate=1 / interlaced=0 / bluray_compat=0 / constrained_intra=0 / bframes=14 / b_pyramid=2 / b_adapt=2 / b_bias=0 / direct=3 / weightb=1 / open_gop=0 / weightp=2 / keyint=240 / keyint_min=23 / scenecut=40 / intra_refresh=0 / rc_lookahead=50 / rc=2pass / mbtree=0 / bitrate=4520 / ratetol=1.0 / qcomp=0.60 / qpmin=0 / qpmax=69 / qpstep=4 / cplxblur=20.0 / qblur=0.5 / vbv_maxrate=62500 / vbv_bufsize=78125 / nal_hrd=none / filler=0 / ip_ratio=1.40 / pb_ratio=1.30 / aq=1:1.00 / zones=153537,160174,b=0.25
Language : English
Default : Yes
Forced : No
Audio #1
ID : 2
Format : AC-3
Format/Info : Audio Coding 3
Mode extension : CM (complete main)
Codec ID : A_AC3
Duration : 1h 51mn
Bit rate mode : Constant
Bit rate : 192 Kbps
Channel(s) : 2 channels
Channel positions : Front: L R
Sampling rate : 48.0 KHz
Bit depth : 16 bits
Compression mode : Lossy
Stream size : 153 MiB (3%)
Title : Дубляж
Language : Russian
Default : Yes
Forced : Yes
Audio #2
ID : 3
Format : AC-3
Format/Info : Audio Coding 3
Mode extension : CM (complete main)
Codec ID : A_AC3
Duration : 1h 51mn
Bit rate mode : Constant
Bit rate : 448 Kbps
Channel(s) : 6 channels
Channel positions : Front: L C R, Side: L R, LFE
Sampling rate : 48.0 KHz
Bit depth : 16 bits
Compression mode : Lossy
Stream size : 357 MiB (6%)
Title : MVO
Language : Russian
Default : No
Forced : No
Audio #3
ID : 4
Format : AC-3
Format/Info : Audio Coding 3
Mode extension : CM (complete main)
Codec ID : A_AC3
Duration : 1h 51mn
Bit rate mode : Constant
Bit rate : 192 Kbps
Channel(s) : 2 channels
Channel positions : Front: L R
Sampling rate : 48.0 KHz
Bit depth : 16 bits
Compression mode : Lossy
Stream size : 153 MiB (3%)
Title : MVO ( Первый Канал )
Language : Russian
Default : No
Forced : No
Audio #4
ID : 5
Format : AC-3
Format/Info : Audio Coding 3
Mode extension : CM (complete main)
Codec ID : A_AC3
Duration : 1h 51mn
Bit rate mode : Constant
Bit rate : 192 Kbps
Channel(s) : 2 channels
Channel positions : Front: L R
Sampling rate : 48.0 KHz
Bit depth : 16 bits
Compression mode : Lossy
Stream size : 153 MiB (3%)
Title : DVO ( Премьер Видео )
Language : Russian
Default : No
Forced : No
Audio #5
ID : 6
Format : AC-3
Format/Info : Audio Coding 3
Mode extension : CM (complete main)
Codec ID : A_AC3
Duration : 1h 51mn
Bit rate mode : Constant
Bit rate : 192 Kbps
Channel(s) : 2 channels
Channel positions : Front: L R
Sampling rate : 48.0 KHz
Bit depth : 16 bits
Compression mode : Lossy
Stream size : 153 MiB (3%)
Title : AVO ( Антонов )
Language : Russian
Default : No
Forced : No
Audio #6
ID : 7
Format : AC-3
Format/Info : Audio Coding 3
Mode extension : CM (complete main)
Codec ID : A_AC3
Duration : 1h 51mn
Bit rate mode : Constant
Bit rate : 448 Kbps
Channel(s) : 6 channels
Channel positions : Front: L C R, Side: L R, LFE
Sampling rate : 48.0 KHz
Bit depth : 16 bits
Compression mode : Lossy
Stream size : 357 MiB (6%)
Title : AVO ( Живов )
Language : Russian
Default : No
Forced : No
Audio #7
ID : 8
Format : AC-3
Format/Info : Audio Coding 3
Mode extension : CM (complete main)
Codec ID : A_AC3
Duration : 1h 51mn
Bit rate mode : Constant
Bit rate : 448 Kbps
Channel(s) : 6 channels
Channel positions : Front: L C R, Side: L R, LFE
Sampling rate : 48.0 KHz
Bit depth : 16 bits
Compression mode : Lossy
Stream size : 357 MiB (6%)
Title : AVO ( Назаров )
Language : Russian
Default : No
Forced : No
Audio #8
ID : 9
Format : AC-3
Format/Info : Audio Coding 3
Mode extension : CM (complete main)
Codec ID : A_AC3
Duration : 1h 51mn
Bit rate mode : Constant
Bit rate : 192 Kbps
Channel(s) : 2 channels
Channel positions : Front: L R
Sampling rate : 48.0 KHz
Bit depth : 16 bits
Compression mode : Lossy
Stream size : 153 MiB (3%)
Title : VO ( Неизвестный )
Language : Russian
Default : No
Forced : No
Audio #9
ID : 10
Format : AC-3
Format/Info : Audio Coding 3
Mode extension : CM (complete main)
Codec ID : A_AC3
Duration : 1h 51mn
Bit rate mode : Constant
Bit rate : 640 Kbps
Channel(s) : 6 channels
Channel positions : Front: L C R, Side: L R, LFE
Sampling rate : 48.0 KHz
Bit depth : 16 bits
Compression mode : Lossy
Stream size : 510 MiB (9%)
Language : English
Default : No
Forced : No
Text #1
ID : 11
Format : UTF-8
Codec ID : S_TEXT/UTF8
Codec ID/Info : UTF-8 Plain Text
Title : Forced
Language : Russian
Default : Yes
Forced : Yes
Text #2
ID : 12
Format : UTF-8
Codec ID : S_TEXT/UTF8
Codec ID/Info : UTF-8 Plain Text
Language : Russian
Default : No
Forced : No
Text #3
ID : 13
Format : UTF-8
Codec ID : S_TEXT/UTF8
Codec ID/Info : UTF-8 Plain Text
Language : English
Default : No
Forced : No
Menu
00:00:00.000 : en:00:00:00.000
00:08:45.358 : en:00:08:45.358
00:09:41.581 : en:00:09:41.581
00:11:19.554 : en:00:11:19.554
00:14:16.814 : en:00:14:16.814
00:20:00.866 : en:00:20:00.866
00:23:35.414 : en:00:23:35.414
00:28:00.095 : en:00:28:00.095
00:30:51.391 : en:00:30:51.391
00:35:19.034 : en:00:35:19.034
00:38:59.254 : en:00:38:59.254
00:43:10.713 : en:00:43:10.713
00:47:39.982 : en:00:47:39.982
00:48:51.387 : en:00:48:51.387
00:50:38.285 : en:00:50:38.285
00:53:38.966 : en:00:53:38.966
00:56:18.250 : en:00:56:18.250
01:00:49.855 : en:01:00:49.855
01:02:39.965 : en:01:02:39.965
01:06:01.166 : en:01:06:01.166
01:07:53.194 : en:01:07:53.194
01:09:35.004 : en:01:09:35.004
01:13:33.576 : en:01:13:33.576
01:16:21.869 : en:01:16:21.869
01:19:52.913 : en:01:19:52.913
01:23:31.673 : en:01:23:31.673
01:29:07.175 : en:01:29:07.175
01:34:56.357 : en:01:34:56.357
01:37:55.578 : en:01:37:55.578
01:40:44.747 : en:01:40:44.747
01:42:49.914 : en:01:42:49.914
01:43:57.898 : en:01:43:57.898
01:46:35.723 : en:01:46:35.723
-

[Цитировать]



Показать сообщения:    

Текущее время: 03-Дек 01:23

Часовой пояс: UTC + 3


Вы не можете начинать темы
Вы не можете отвечать на сообщения
Вы не можете редактировать свои сообщения
Вы не можете удалять свои сообщения
Вы не можете голосовать в опросах
Вы не можете прикреплять файлы к сообщениям
Вы не можете скачивать файлы

!ВНИМАНИЕ!
Сайт не предоставляет электронные версии произведений, а занимается лишь коллекционированием и каталогизацией ссылок, присылаемых и публикуемых на форуме нашими читателями. Если вы являетесь правообладателем какого-либо представленного материала и не желаете, чтобы ссылка на него находилась в нашем каталоге, свяжитесь с нами, и мы незамедлительно удалим ее. Файлы для обмена на трекере предоставлены пользователями сайта, и администрация не несет ответственности за их содержание. Просьба не заливать файлы, защищенные авторскими правами, а также файлы нелегального содержания!