[ Сегодня идет свободное скачивание без начисления Download ]


Статистика раздачи
Нет
 
   
 
Top  
 
 
Подводное течение / Undertow (2004) BDRip 720p Название: Подводное течение
Оригинальное название: Undertow
Год выхода: 2004
Жанр: Триллер, драма
Режиссер: Дэвид Гордон Грин
В ролях: Джейми Белл, Девон Алан, Джош Лукас, Дермот Малруни, Шири Эпплби, Эдди Роус, Патрис Джонсон, Пэт Хили, Кристен Стюарт, Билл МакКинни
О фильме:
Джон Манн живет со своими сыновьями Крисом и Тимом в деревушке в лесах Джорджии. Старший, Крис, строит репутацию нарушителя спокойствия; младший, Тим, является случайным ребенком, который ест грязь и краску и объясняет, что он «выкладывает книги по тому, как они пахнут».
Их отец Джон оплакивает свою мертвую жену и держит мальчиков изолированными от других людей. С появлением Дила Манна, брата Джона, только что вышедшего из тюрьмы, спокойной жизни Тима и Криса приходит конец...


Страна: США
Студия: ContentFilm, Muskat Filmed Properties LLC, Sunflower Productions LLC, United Artists
Продолжительность: 01:48:05
Перевод: Профессиональный (двухголосый, закадровый)
Файл
Формат: MKV
Качество: BDRip 720p
Видео: 1280x692p (1.85:1), 23.976 fps, AVC MPEG-4 (x264), [email protected], ~ 8184 kbps, 0.385 bits/(pixel*frame)
Аудио#1: Русский: 48 kHz, AC3, 2/0 (L,R) ch, ~192.00 kbps avg [Профессиональный (двухголосый)]
Аудио#2: Английский: 48 kHz, DTS, 2/0 (L,R) ch, ~1509.00 kbps avg [Оригинал]

MI

General
Unique ID : 244630682924379907770821626927678001392 (0xB80A27DF9FFE0F429DFAED4CE0CC90F0)
Complete name : E:Undertow 2004 BDRip 720p-VietHD.mkv
Format : Matroska
Format version : Version 4 / Version 2
File size : 7.61 GiB
Duration : 1h 48mn
Overall bit rate : 10.1 Mbps
Encoded date : UTC 2016-05-18 09:08:37
Writing application : mkvmerge v6.1.0 ('Old Devil') built on Mar 2 2013 14:32:37
Writing library : libebml v1.3.0 + libmatroska v1.4.0
Video
ID : 1
Format : AVC
Format/Info : Advanced Video Codec
Format profile : [email protected]
Format settings, CABAC : Yes
Format settings, ReFrames : 9 frames
Codec ID : V_MPEG4/ISO/AVC
Duration : 1h 48mn
Bit rate : 8 184 Kbps
Width : 1 280 pixels
Height : 692 pixels
Display aspect ratio : 1.85:1
Frame rate mode : Constant
Frame rate : 23.976 fps
Color space : YUV
Chroma subsampling : 4:2:0
Bit depth : 8 bits
Scan type : Progressive
Bits/(Pixel*Frame) : 0.385
Stream size : 6.18 GiB (81%)
Writing library : x264 core 148 r2665kMod a01e339
Encoding settings : cabac=1 / ref=9 / deblock=1:-3:-3 / analyse=0x3:0x133 / me=umh / subme=10 / psy=1 / fade_compensate=0.00 / psy_rd=1.10:0.00 / mixed_ref=1 / me_range=24 / chroma_me=1 / trellis=2 / 8x8dct=1 / cqm=0 / deadzone=21,11 / fast_pskip=0 / chroma_qp_offset=-2 / threads=12 / lookahead_threads=2 / sliced_threads=0 / nr=0 / decimate=0 / interlaced=0 / bluray_compat=0 / constrained_intra=0 / fgo=0 / bframes=7 / b_pyramid=2 / b_adapt=2 / b_bias=0 / direct=3 / weightb=1 / open_gop=0 / weightp=2 / keyint=250 / keyint_min=23 / scenecut=40 / intra_refresh=0 / rc_lookahead=60 / rc=crf / mbtree=0 / crf=17.3000 / qcomp=0.65 / qpmin=0 / qpmax=69 / qpstep=4 / vbv_maxrate=62500 / vbv_bufsize=78125 / crf_max=0.0 / nal_hrd=none / filler=0 / ip_ratio=1.30 / pb_ratio=1.20 / aq=3:0.70
Language : English
Default : Yes
Forced : No
Matrix coefficients : BT.709
Audio #1
ID : 2
Format : AC-3
Format/Info : Audio Coding 3
Mode extension : CM (complete main)
Format settings, Endianness : Big
Codec ID : A_AC3
Duration : 1h 48mn
Bit rate mode : Constant
Bit rate : 192 Kbps
Channel count : 2 channels
Channel positions : Front: L R
Sampling rate : 48.0 KHz
Bit depth : 16 bits
Compression mode : Lossy
Stream size : 148 MiB (2%)
Language : Russian
Default : Yes
Forced : No
Audio #2
ID : 3
Format : DTS
Format/Info : Digital Theater Systems
Mode : 16
Format settings, Endianness : Big
Codec ID : A_DTS
Duration : 1h 48mn
Bit rate mode : Constant
Bit rate : 1 509 Kbps
Channel count : 2 channels
Channel positions : Front: L R
Sampling rate : 48.0 KHz
Bit depth : 24 bits
Compression mode : Lossy
Stream size : 1.14 GiB (15%)
Language : English
Default : No
Forced : No
Text
ID : 4
Format : UTF-8
Codec ID : S_TEXT/UTF8
Codec ID/Info : UTF-8 Plain Text
Language : English
Default : No
Forced : No

Скриншоты

[Цитировать]



Показать сообщения:    

Текущее время: 06-Дек 17:12

Часовой пояс: UTC + 3


Вы не можете начинать темы
Вы не можете отвечать на сообщения
Вы не можете редактировать свои сообщения
Вы не можете удалять свои сообщения
Вы не можете голосовать в опросах
Вы не можете прикреплять файлы к сообщениям
Вы не можете скачивать файлы

!ВНИМАНИЕ!
Сайт не предоставляет электронные версии произведений, а занимается лишь коллекционированием и каталогизацией ссылок, присылаемых и публикуемых на форуме нашими читателями. Если вы являетесь правообладателем какого-либо представленного материала и не желаете, чтобы ссылка на него находилась в нашем каталоге, свяжитесь с нами, и мы незамедлительно удалим ее. Файлы для обмена на трекере предоставлены пользователями сайта, и администрация не несет ответственности за их содержание. Просьба не заливать файлы, защищенные авторскими правами, а также файлы нелегального содержания!