[ Сегодня идет свободное скачивание без начисления Download ]


Статистика раздачи
Скачал: [ 1 ]
 
   
 
Top  
 
 
Курочка Ряба (1994) DVDRip-AVC Информация о фильме
Название: Курочка Ряба
Год выхода: 1994
Жанр: Трагикомедия
Режиссер: Андрей Кончаловский
В ролях: Инна Чурикова, Виктор Михайлов, Александр Сурин, Геннадий Егорычев, Геннадий Назаров, Михаил Кислов, Татьяна Букамина, Евгений Шкаев, Лариса Кудряшова, Михаил Кононов, Любовь Соколова, Михаил Богдасаров, Елизавета Жукова, Александр Захаркин, Михаил Ельский, Василий Тарасов, Лев Суворов, Владимир Ляховицкий, Николай Гаро, Михаил Бурлаков
О фильме:
Со времени событий картины «История Аси Клячиной…» прошло 30 лет. Действие происходит примерно в 1990-е годы в российской глубинке. В картине в лубочной и фантасмагорической манере показаны противоречивая жизнь деревни. Ася — чудаковатая деревенская женщина, воспитанная на идеалах развитого социализма. Выпив самогона, Ася начинает беседовать со своей курицей. Именно курица Аси Клячиной становится главной героиней фильма. Она сносит золотое яичко, и вокруг него закипают страсти. Рядом с разваливающимся хозяйством Аси процветает хозяйство соседа-фермера. Его дом и лесопилка — преуспевающий островок капитализма среди полусонного и нищего существования деревни. Там кипит работа — люди трудятся как проклятые и круглые сутки зарабатывают деньги. Фермеру давно нравится Ася, но людям с такими разными взглядами не сойтись... Режиссер продолжает свое "путешествие по неизведанному", "свое исследование загадочной русской души", повествуя о судьбе удивительной Аси Клячиной спустя 30 лет. Вас ждет умная и талантливая картина, где будут любовь и ненависть, радость и грусть, восторг и разочарование и даже... золотое яичко.
Страна: Россия, Франция, АО Логоваз, АРК-Фильм, Canal+
Продолжительность: 01:51:29
Перевод: не требуется
Файл
Кодек: x264
Качество: DVDRip-AVC
Видео: MPEG-4 AVC, 2200 Кбит/с, [email protected]
Звук: AC3, 2 ch, 224 Кбит/с

Скриншоты

Медиа-Инфо

raw [info]: 720x572p 16:15 @ 25/1 fps (cfr)
x264 [info]: using SAR=16/15
x264 [info]: using cpu capabilities: MMX2 SSE2Fast SSSE3 SSE4.2 AVX
x264 [info]: profile High, level 4.1
x264 [info]: frame I:39 Avg QP:14.29 size: 72100
x264 [info]: frame P:629 Avg QP:18.77 size: 21955
x264 [info]: frame B:1862 Avg QP:20.52 size: 6077
===============================================================================================
Общее
Уникальный идентификатор : 252812150646561822883812355402219660273 (0xBE31D960289F51F8A383A51B215823F1)
Полное имя : D:Курочка Ряба_1994-DVDRip-AVC.mkv
Формат : Matroska
Версия формата : Version 2
Размер файла : 1,93 Гбайт
Продолжительность : 1 ч. 51 м.
Общий поток : 2476 Кбит/сек
Дата кодирования : UTC 2016-05-17 23:47:13
Программа кодирования : mkvmerge v5.8.0 ('No Sleep / Pillow') built on Sep 2 2012 15:37:04
Библиотека кодирования : libebml v1.2.3 + libmatroska v1.3.0
Видео
Идентификатор : 1
Формат : AVC
Формат/Информация : Advanced Video Codec
Профиль формата : [email protected]
Параметр CABAC формата : Да
Параметр ReFrames формата : 15 кадров
Идентификатор кодека : V_MPEG4/ISO/AVC
Продолжительность : 1 ч. 51 м.
Битрейт : 2250 Кбит/сек
Ширина : 720 пикселей
Высота : 572 пикселя
Соотношение сторон : 4:3
Режим частоты кадров : Постоянный
Частота кадров : 25,000 кадров/сек
Цветовое пространство : YUV
Субдискретизация насыщенности : 4:2:0
Битовая глубина : 8 бит
Тип развёртки : Прогрессивная
Бит/(Пиксели*Кадры) : 0.219
Размер потока : 1,72 Гбайт (89%)
Библиотека кодирования : x264 core 148 r2638 7599210
Настройки программы : cabac=1 / ref=15 / deblock=1:-2:-2 / analyse=0x3:0x133 / me=umh / subme=10 / psy=1 / psy_rd=1.05:0.12 / mixed_ref=1 / me_range=32 / chroma_me=1 / trellis=2 / 8x8dct=1 / cqm=0 / deadzone=21,11 / fast_pskip=0 / chroma_qp_offset=-3 / threads=12 / lookahead_threads=3 / sliced_threads=0 / nr=0 / decimate=0 / interlaced=0 / bluray_compat=0 / constrained_intra=0 / bframes=10 / b_pyramid=2 / b_adapt=2 / b_bias=0 / direct=3 / weightb=1 / open_gop=0 / weightp=2 / keyint=250 / keyint_min=25 / scenecut=40 / intra_refresh=0 / rc_lookahead=60 / rc=2pass / mbtree=1 / bitrate=2250 / ratetol=1.0 / qcomp=0.65 / qpmin=0 / qpmax=39 / qpstep=4 / cplxblur=20.0 / qblur=0.5 / ip_ratio=1.40 / aq=1:1.00
Язык : English
Default : Да
Forced : Нет
Цветовой диапазон : Limited
Основные цвета : BT.601 PAL
Характеристики трансфера : BT.470 System B, BT.470 System G
Коэффициенты матрицы : BT.601
Аудио
Идентификатор : 2
Формат : AC-3
Формат/Информация : Audio Coding 3
Расширение режима : CM (complete main)
Параметр Endianness формата : Big
Идентификатор кодека : A_AC3
Продолжительность : 1 ч. 51 м.
Вид битрейта : Постоянный
Битрейт : 224 Кбит/сек
Каналы : 2 канала
Расположение каналов : Front: L R
Частота : 48,0 КГц
Метод сжатия : С потерями
Размер потока : 179 Мбайт (9%)
Язык : Russian
Default : Да
Forced : Нет
Меню
00:00:00.000 : ru:Chapter 1
00:01:36.880 : ru:Chapter 2
00:15:56.560 : ru:Chapter 3
00:31:14.800 : ru:Chapter 4
00:44:06.640 : ru:Chapter 5
00:57:08.560 : ru:Chapter 6
01:11:21.040 : ru:Chapter 7
01:25:41.680 : ru:Chapter 8
01:39:23.440 : ru:Chapter 9

[Цитировать]



Показать сообщения:    

Текущее время: 04-Дек 19:22

Часовой пояс: UTC + 3


Вы не можете начинать темы
Вы не можете отвечать на сообщения
Вы не можете редактировать свои сообщения
Вы не можете удалять свои сообщения
Вы не можете голосовать в опросах
Вы не можете прикреплять файлы к сообщениям
Вы не можете скачивать файлы

!ВНИМАНИЕ!
Сайт не предоставляет электронные версии произведений, а занимается лишь коллекционированием и каталогизацией ссылок, присылаемых и публикуемых на форуме нашими читателями. Если вы являетесь правообладателем какого-либо представленного материала и не желаете, чтобы ссылка на него находилась в нашем каталоге, свяжитесь с нами, и мы незамедлительно удалим ее. Файлы для обмена на трекере предоставлены пользователями сайта, и администрация не несет ответственности за их содержание. Просьба не заливать файлы, защищенные авторскими правами, а также файлы нелегального содержания!