[ Сегодня идет свободное скачивание без начисления Download ]


Статистика раздачи
Нет
 
   
 
Top  
 
 
В погоне за счастьем / The Pursuit of Happyness Год выпуска: 2006
Страна: США
Производство: Columbia Pictures Corporation, Escape Artists, Overbrook Entertainment, Relativity Media
Жанр: драма, биография
Режиссер: Габриэле Муччино / Gabriele Muccino
В ролях: Уилл Смит, Джейден Смит, Тэнди Ньютон, Брайан Хау, Джеймс Карен, Дэн Кастелланета, Курт Фуллер, Такайо Фишер, Кевин Уэст, Джордж Чунг
Перевод: Профессиональный (полное дублирование)
Субтитры: Русские, Английские
Описание: Крис Гарднер — отец одиночка. Воспитывая пятилетнего сына, Крис изо всех сил старается сделать так, чтобы ребенок рос счастливым. Работая продавцом, он не может оплатить квартиру, и их выселяют.
Оказавшись на улице, но не желая сдаваться, отец устраивается специалистом в брокерскую компанию. Только и там его доходы далеки от нормальных. Но Крис поклялся себе во что бы то ни стало вырастить сына, и никакие трудности его не остановят.



Качество: BDRip 1080p
Продолжительность: 01:57:27
Формат: MKV
Видео кодек: AVC
Аудио кодек: AC3
Видео: 1920x800p; 23.976 fps; 9050 Kbps
Аудио: Русский; AC3; 6 Ch; 48.0 KHz; 640 Kbps; | Дубляж
Аудио #2: Русский; AC3; 6 Ch; 48.0 KHz; 448 Kbps; | MVO
Аудио #3: Украинский; AC3; 6 Ch; 48.0 KHz; 448 Kbps; | Дубляж
Аудио #4: Английский; AC3; 6 Ch; 48.0 KHz; 640 Kbps; | Оригинал
Аудио #5: Английский; AC3; 2 Ch; 48.0 KHz; 192 Kbps; | Commentary
Премьера (мир): 15 декабря 2006
Премьера (РФ): 22 марта 2007

Media Info

General
Unique ID : 254488674103372866505879720839405795042 (0xBF74BC5D259BCC77AB98C6AD5FCE76E2)
Complete name : E:\MyRazd\V.pogone.za.schastiem.2006.BDRip.1080p.mkv
Format : Matroska
Format version : Version 2
File size : 9.36 GiB
Duration : 1h 57mn
Overall bit rate : 11.4 Mbps
Encoded date : UTC 2012-04-03 07:26:28
Writing application : mkvmerge v5.4.0 ('Piper') built on Mar 10 2012 13:34:39
Writing library : libebml v1.2.3 + libmatroska v1.3.0
Video
ID : 1
Format : AVC
Format/Info : Advanced Video Codec
Format profile : High@L4.1
Format settings, CABAC : Yes
Format settings, ReFrames : 5 frames
Codec ID : V_MPEG4/ISO/AVC
Duration : 1h 57mn
Bit rate : 9 050 Kbps
Width : 1 920 pixels
Height : 800 pixels
Display aspect ratio : 2.40:1
Frame rate : 23.976 fps
Color space : YUV
Chroma subsampling : 4:2:0
Bit depth : 8 bits
Scan type : Progressive
Bits/(Pixel*Frame) : 0.246
Stream size : 7.24 GiB (77%)
Title : The Pursuit of Happyness (2006)
Writing library : x264 core 122 r2184 5c85e0a
Encoding settings : cabac=1 / ref=5 / deblock=1:-3:-3 / analyse=0x3:0x113 / me=umh / subme=9 / psy=1 / psy_rd=1.00:0.10 / mixed_ref=1 / me_range=24 / chroma_me=1 / trellis=2 / 8x8dct=1 / cqm=0 / deadzone=21,11 / fast_pskip=0 / chroma_qp_offset=-3 / threads=3 / sliced_threads=0 / nr=0 / decimate=0 / interlaced=0 / bluray_compat=0 / constrained_intra=0 / bframes=5 / b_pyramid=2 / b_adapt=2 / b_bias=0 / direct=3 / weightb=1 / open_gop=0 / weightp=2 / keyint=250 / keyint_min=23 / scenecut=40 / intra_refresh=0 / rc_lookahead=40 / rc=2pass / mbtree=0 / bitrate=9050 / ratetol=1.0 / qcomp=0.65 / qpmin=0 / qpmax=69 / qpstep=4 / cplxblur=20.0 / qblur=0.5 / vbv_maxrate=50000 / vbv_bufsize=50000 / nal_hrd=none / ip_ratio=1.40 / pb_ratio=1.30 / aq=1:1.00
Language : English
Default : Yes
Forced : No
Audio #1
ID : 2
Format : AC-3
Format/Info : Audio Coding 3
Mode extension : CM (complete main)
Codec ID : A_AC3
Duration : 1h 57mn
Bit rate mode : Constant
Bit rate : 640 Kbps
Channel(s) : 6 channels
Channel positions : Front: L C R, Side: L R, LFE
Sampling rate : 48.0 KHz
Bit depth : 16 bits
Compression mode : Lossy
Stream size : 538 MiB (6%)
Title : Dub
Language : Russian
Default : Yes
Forced : No
Audio #2
ID : 3
Format : AC-3
Format/Info : Audio Coding 3
Mode extension : CM (complete main)
Codec ID : A_AC3
Duration : 1h 57mn
Bit rate mode : Constant
Bit rate : 448 Kbps
Channel(s) : 6 channels
Channel positions : Front: L C R, Side: L R, LFE
Sampling rate : 48.0 KHz
Bit depth : 16 bits
Compression mode : Lossy
Stream size : 376 MiB (4%)
Title : MVO
Language : Russian
Default : No
Forced : No
Audio #3
ID : 4
Format : AC-3
Format/Info : Audio Coding 3
Mode extension : CM (complete main)
Codec ID : A_AC3
Duration : 1h 57mn
Bit rate mode : Constant
Bit rate : 448 Kbps
Channel(s) : 6 channels
Channel positions : Front: L C R, Side: L R, LFE
Sampling rate : 48.0 KHz
Bit depth : 16 bits
Compression mode : Lossy
Stream size : 376 MiB (4%)
Title : Dub
Language : Ukrainian
Default : No
Forced : No
Audio #4
ID : 5
Format : AC-3
Format/Info : Audio Coding 3
Mode extension : CM (complete main)
Codec ID : A_AC3
Duration : 1h 57mn
Bit rate mode : Constant
Bit rate : 640 Kbps
Channel(s) : 6 channels
Channel positions : Front: L C R, Side: L R, LFE
Sampling rate : 48.0 KHz
Bit depth : 16 bits
Compression mode : Lossy
Stream size : 538 MiB (6%)
Title : Original
Language : English
Default : No
Forced : No
Audio #5
ID : 6
Format : AC-3
Format/Info : Audio Coding 3
Format profile : Dolby Digital
Mode extension : CM (complete main)
Codec ID : A_AC3
Duration : 1h 57mn
Bit rate mode : Constant
Bit rate : 192 Kbps
Channel(s) : 2 channels
Channel positions : Front: L R
Sampling rate : 48.0 KHz
Bit depth : 16 bits
Compression mode : Lossy
Stream size : 161 MiB (2%)
Title : Commentary
Language : English
Default : No
Forced : No
Text #1
ID : 7
Format : UTF-8
Codec ID : S_TEXT/UTF8
Codec ID/Info : UTF-8 Plain Text
Language : Russian
Default : No
Forced : No
Text #2
ID : 8
Format : UTF-8
Codec ID : S_TEXT/UTF8
Codec ID/Info : UTF-8 Plain Text
Language : English
Default : No
Forced : No
Text #3
ID : 9
Format : ASS
Codec ID : S_TEXT/ASS
Codec ID/Info : Advanced Sub Station Alpha
Compression mode : Lossless
Language : English
Default : No
Forced : No
Menu
00:00:00.000 : :Chapter 01
00:05:09.017 : :Chapter 02
00:12:36.255 : :Chapter 03
00:22:25.552 : :Chapter 04
00:28:09.896 : :Chapter 05
00:33:33.928 : :Chapter 06
00:41:18.434 : :Chapter 07
00:48:15.517 : :Chapter 08
00:55:49.512 : :Chapter 09
01:02:17.233 : :Chapter 10
01:09:20.364 : :Chapter 11
01:17:49.456 : :Chapter 12
01:24:34.235 : :Chapter 13
01:33:57.298 : :Chapter 14
01:41:19.239 : :Chapter 15
01:48:30.128 : :Chapter 16

Скриншоты





Последний раз редактировалось: LinkenDark (2013-01-07 15:04), всего редактировалось 3 раз(а)

[Цитировать]

Исправьте рейтинги Кинопоиск и IMDB
вот пример
[kp]104938[/kp] / [imdb]tt0454921[/imdb]
[kp]104938[/kp] / [imdb]tt0454921[/imdb]

[Цитировать]



Показать сообщения:    

Текущее время: 09-Дек 18:28

Часовой пояс: UTC + 3


Вы не можете начинать темы
Вы не можете отвечать на сообщения
Вы не можете редактировать свои сообщения
Вы не можете удалять свои сообщения
Вы не можете голосовать в опросах
Вы не можете прикреплять файлы к сообщениям
Вы не можете скачивать файлы

!ВНИМАНИЕ!
Сайт не предоставляет электронные версии произведений, а занимается лишь коллекционированием и каталогизацией ссылок, присылаемых и публикуемых на форуме нашими читателями. Если вы являетесь правообладателем какого-либо представленного материала и не желаете, чтобы ссылка на него находилась в нашем каталоге, свяжитесь с нами, и мы незамедлительно удалим ее. Файлы для обмена на трекере предоставлены пользователями сайта, и администрация не несет ответственности за их содержание. Просьба не заливать файлы, защищенные авторскими правами, а также файлы нелегального содержания!