[ Сегодня идет свободное скачивание без начисления Download ]


Статистика раздачи
Нет
 
   
 
Top  
 
 
Мармадюк / Marmaduke«Живи по-крупному»
Год выпуска: 2010
Страна: США
Производство: 20th Century Fox Film Corporation, Davis Entertainment, Intrigue, Regency Enterprises
Жанр: комедия, семейный
Режиссер: Том Дей
В ролях: Оуэн Уилсон, Эмма Стоун, Джордж Лопез, Кристофер Минц-Плассе, Стив Куган, Стэйси Фергюсон, Кифер Сазерленд, Дэймон Уайанс мл., Марлон Уайанс, Сэм Эллиотт
Перевод: Профессиональный (полное дублирование)
Субтитры: Отсутствуют
Описание: Семья переезжает в новый дом и новым соседям придется привыкнуть к тому, что датский дог по имени Мармадюк вносит постоянный хаос в их жизнь — его хозяева к этому уже давно привыкли.
[kp]463579[/kp] [imdb]tt1392197[/imdb]
Качество: HDRip
Продолжительность: 01:24:31
Формат: AVI
Видео кодек: XviD
Аудио кодек: AC3
Видео: 720x304 (2.37:1), 25 fps, XviD build 50, 1923 kbps avg, 0.35 bit/pixel
Аудио: 48 kHz, AC3 Dolby Digital, 3/2 (L,C,R,l,r) + LFE ch, 384 kbps

Media Info

Video
ID                                       : 0
Format                                   : MPEG-4 Visual
Format profile                           : [email protected]
Format settings, BVOP                    : No
Format settings, QPel                    : No
Format settings, GMC                     : No warppoints
Format settings, Matrix                  : Default (H.263)
Codec ID                                 : XVID
Codec ID/Hint                            : XviD
Duration                                 : 1h 24mn
Bit rate                                 : 1 924 Kbps
Width                                    : 720 pixels
Height                                   : 304 pixels
Display aspect ratio                     : 2.35:1
Frame rate                               : 25.000 fps
Color space                              : YUV
Chroma subsampling                       : 4:2:0
Bit depth                                : 8 bits
Scan type                                : Progressive
Compression mode                         : Lossy
Bits/(Pixel*Frame)                       : 0.352
Stream size                              : 1.14 GiB (83%)
Writing library                          : XviD 1.2.1 (UTC 2008-12-04)
Audio
ID                                       : 1
Format                                   : AC-3
Format/Info                              : Audio Coding 3
Mode extension                           : CM (complete main)
Format settings, Endianness              : Big
Codec ID                                 : 2000
Duration                                 : 1h 24mn
Bit rate mode                            : Constant
Bit rate                                 : 384 Kbps
Channel(s)                               : 6 channels
Channel positions                        : Front: L C R, Side: L R, LFE
Sampling rate                            : 48.0 KHz
Bit depth                                : 16 bits
Compression mode                         : Lossy
Stream size                              : 232 MiB (17%)
Alignment                                : Split accross interleaves
Interleave, duration                     : 40 ms (1.00 video frame)
Interleave, preload duration             : 500 ms
[th]http://torrentsclub.org/pictures/001b022de9a850e64c...0d509aa.jpg[/th]
[th]http://torrentsclub.org/pictures/873535455b0bd49a22...5fe387c.jpg[/th]
[th]http://torrentsclub.org/pictures/b804bf1ed968b68e8a...8de0fc1.jpg[/th]
[th]http://torrentsclub.org/pictures/b75006860ccff49e19...68b832e.jpg[/th]
[Стол заказов][Прием РГ][О нас "RG Dark Lords]


Последний раз редактировалось: Hunter (2013-01-07 15:22), всего редактировалось 1 раз

[Цитировать]



Показать сообщения:    

Текущее время: 04-Дек 13:18

Часовой пояс: UTC + 3


Вы не можете начинать темы
Вы не можете отвечать на сообщения
Вы не можете редактировать свои сообщения
Вы не можете удалять свои сообщения
Вы не можете голосовать в опросах
Вы не можете прикреплять файлы к сообщениям
Вы не можете скачивать файлы

!ВНИМАНИЕ!
Сайт не предоставляет электронные версии произведений, а занимается лишь коллекционированием и каталогизацией ссылок, присылаемых и публикуемых на форуме нашими читателями. Если вы являетесь правообладателем какого-либо представленного материала и не желаете, чтобы ссылка на него находилась в нашем каталоге, свяжитесь с нами, и мы незамедлительно удалим ее. Файлы для обмена на трекере предоставлены пользователями сайта, и администрация не несет ответственности за их содержание. Просьба не заливать файлы, защищенные авторскими правами, а также файлы нелегального содержания!