[ Today is free to download without increasing Download ]

DL-List and Torrent activity
Шпион по соседству / The Spy Next Door«Это его самое сложное задание за всю карьеру»
Год выпуска: 2009
Страна: США
Производство: Relativity Media
Жанр: боевик, комедия, семейный
Режиссер: Брайан Левант
В ролях: Джеки Чан, Эмбер Валлетта, Мадлен Кэрролл, Уилл Шэдли, Алина Фоли, Магнус Шевинг, Билли Рэй Сайрус, Джордж Лопез, Кэтрин Боэчер, Миа Сталлард
Перевод: Профессиональный (полное дублирование)
Субтитры: Отсутствуют
Описание: Агент Боб Хо обезвреживал террористов, ниспровергал диктаторов и крушил целые империи зла, но теперь его ждет самое сложное задание за всю карьеру — на один вечер он должен стать нянькой. Здесь он снова использует профессиональную подготовку и уникальные навыки, однако скоро Боба ждут большие неприятности.
[kp]431539[/kp] [imdb]tt1273678[/imdb]
Качество: HDRip
Продолжительность: 01:30:16
Формат: AVI
Видео кодек: XviD
Аудио кодек: MPEG Audio
Видео: 608x336 (1.81:1), 25 fps, XviD MPEG-4, 944 kbps avg, 0.19 bit/pixel
Аудио: 48 kHz, MPEG Layer 3, 2 ch, 128.00 kbps avg

Media Info

ID                                       : 0
Format                                   : MPEG-4 Visual
Format profile                           : Advanced Simple@L5
Format settings, BVOP                    : 2
Format settings, QPel                    : No
Format settings, GMC                     : No warppoints
Format settings, Matrix                  : Default (H.263)
Muxing mode                              : Packed bitstream
Codec ID                                 : XVID
Codec ID/Hint                            : XviD
Duration                                 : 1h 30mn
Bit rate                                 : 945 Kbps
Width                                    : 608 pixels
Height                                   : 336 pixels
Display aspect ratio                     : 16:9
Frame rate                               : 25.000 fps
Color space                              : YUV
Chroma subsampling                       : 4:2:0
Bit depth                                : 8 bits
Scan type                                : Progressive
Compression mode                         : Lossy
Bits/(Pixel*Frame)                       : 0.185
Stream size                              : 610 MiB (87%)
Writing library                          : XviD 1.2.1 (UTC 2008-12-04)
ID                                       : 1
Format                                   : MPEG Audio
Format version                           : Version 1
Format profile                           : Layer 3
Mode                                     : Joint stereo
Mode extension                           : MS Stereo
Codec ID                                 : 55
Codec ID/Hint                            : MP3
Duration                                 : 1h 30mn
Bit rate mode                            : Constant
Bit rate                                 : 128 Kbps
Channel(s)                               : 2 channels
Sampling rate                            : 48.0 KHz
Compression mode                         : Lossy
Stream size                              : 82.6 MiB (12%)
Alignment                                : Aligned on interleaves
Interleave, duration                     : 40 ms (1.00 video frame)
Interleave, preload duration             : 504 ms
[Стол заказов][Прием РГ][О нас "RG Dark Lords]


Display posts:    

Current time is: 25-Oct 11:32

All times are UTC + 3

You cannot post new topics in this forum
You cannot reply to topics in this forum
You cannot edit your posts in this forum
You cannot delete your posts in this forum
You cannot vote in polls in this forum
You cannot attach files in this forum
You cannot download files in this forum

The site does not give electronic versions of products, and is engaged only in a collecting and cataloguing of the references sent and published at a forum by our readers. If you are the legal owner of any submitted material and do not wish that the reference to it was in our catalogue, contact us and we shall immediately remove her. Files for an exchange on tracker are given by users of a site, and the administration does not bear the responsibility for their maintenance. The request to not fill in the files protected by copyrights, and also files of the illegal maintenance!