[ Сегодня идет свободное скачивание без начисления Download ]


Статистика раздачи
Нет
 
   
 
Top  
 
 
Агент Джонни Инглиш: Перезагрузка / Johnny English Reborn«Он не ищет лёгких путей»
Год выпуска: 2011
Страна: США, Франция, Великобритания
Производство: Relativity Media, Studio Canal, Universal Pictures, Working Title Films
Жанр: боевик, комедия, приключения
Режиссер: Оливер Паркер
В ролях: Роуэн Эткинсон, Джиллиан Андерсон, Роджер Барклай, Эрик Карте, Того Игава, Элинор Уайлд, Мэнди Сидху, Маргарет Клуни, Розамунд Пайк, Доминик Уэст
Перевод: Профессиональный (полное дублирование)
Субтитры: Отсутствуют
Описание: Действие фильма разворачивается через 8 лет после событий предшествующего фильма и с тех пор карьера сэра Джонни Инглиша ухудшается. За 5 лет до начала фильма его направили с заданием в Мозамбик, но миссия пошла ужасно плохо. С тех пор он живёт в пещере в горах Тибета, прячась ото всех из-за стыда, сожалений и обвинений в провале миссии.
Фильм начинается, когда герой находится на крайне низком моральном уровне, пока ему не дают ещё один шанс. Британская разведка МИ-7 снова нуждается в нём и ей надо вернуть агента, чтобы тот сорвал заговор группы киллеров, планирующих убить китайского премьер-министра.

[kp]507676[/kp] [imdb]tt1634122[/imdb]
Качество: HDRip
Продолжительность: 01:41:21
Формат: AVI
Видео кодек: XviD
Аудио кодек: AC3
Видео: 720x304 (2.37:1), 23.976 fps, XviD build 50, 1590 kbps avg, 0.30 bit/pixel
Аудио: 48 kHz, AC3 Dolby Digital, 3/2 (L,C,R,l,r) + LFE ch, 384 kbps

Media Info

Video
ID                                       : 0
Format                                   : MPEG-4 Visual
Format profile                           : Advanced [email protected]
Format settings, BVOP                    : 1
Format settings, QPel                    : No
Format settings, GMC                     : No warppoints
Format settings, Matrix                  : Custom
Codec ID                                 : XVID
Codec ID/Hint                            : XviD
Duration                                 : 1h 41mn
Bit rate                                 : 1 591 Kbps
Width                                    : 720 pixels
Height                                   : 304 pixels
Display aspect ratio                     : 2.35:1
Frame rate                               : 23.976 fps
Color space                              : YUV
Chroma subsampling                       : 4:2:0
Bit depth                                : 8 bits
Scan type                                : Progressive
Compression mode                         : Lossy
Bits/(Pixel*Frame)                       : 0.303
Stream size                              : 1.13 GiB (80%)
Writing library                          : XviD 1.2.1 (UTC 2008-12-04)
Audio
ID                                       : 1
Format                                   : AC-3
Format/Info                              : Audio Coding 3
Mode extension                           : CM (complete main)
Format settings, Endianness              : Big
Codec ID                                 : 2000
Duration                                 : 1h 41mn
Bit rate mode                            : Constant
Bit rate                                 : 384 Kbps
Channel(s)                               : 6 channels
Channel positions                        : Front: L C R, Side: L R, LFE
Sampling rate                            : 48.0 KHz
Bit depth                                : 16 bits
Compression mode                         : Lossy
Stream size                              : 278 MiB (19%)
Alignment                                : Split accross interleaves
Interleave, duration                     : 42 ms (1.00 video frame)
Interleave, preload duration             : 500 ms
[th]http://torrentsclub.org/pictures/038e5ab2f7d44f2b68...9035e80.jpg[/th]
[th]http://torrentsclub.org/pictures/e59e50fca20fbf4892...bd7d2c9.jpg[/th]
[th]http://torrentsclub.org/pictures/27c157d386dcab77c4...c8df82f.jpg[/th]
[th]http://torrentsclub.org/pictures/bb1e340b260ccbf806...24c618a.jpg[/th]
[Стол заказов][Прием РГ][О нас "RG Dark Lords]


Последний раз редактировалось: Hunter (2013-01-10 05:44), всего редактировалось 1 раз

[Цитировать]

Супер релиз, смотрел эту комдею ухахатывался весь фильм!

[Цитировать]

Да! фильм великолепный!
Роуэн Эткинсон великолепно сыграл роль!
Релиз хороший!

[Цитировать]

Hunter Раздачи нету!

[Цитировать]



Показать сообщения:    

Текущее время: 06-Дек 19:10

Часовой пояс: UTC + 3


Вы не можете начинать темы
Вы не можете отвечать на сообщения
Вы не можете редактировать свои сообщения
Вы не можете удалять свои сообщения
Вы не можете голосовать в опросах
Вы не можете прикреплять файлы к сообщениям
Вы не можете скачивать файлы

!ВНИМАНИЕ!
Сайт не предоставляет электронные версии произведений, а занимается лишь коллекционированием и каталогизацией ссылок, присылаемых и публикуемых на форуме нашими читателями. Если вы являетесь правообладателем какого-либо представленного материала и не желаете, чтобы ссылка на него находилась в нашем каталоге, свяжитесь с нами, и мы незамедлительно удалим ее. Файлы для обмена на трекере предоставлены пользователями сайта, и администрация не несет ответственности за их содержание. Просьба не заливать файлы, защищенные авторскими правами, а также файлы нелегального содержания!