[ Today is free to download without increasing Download ]

DL-List and Torrent activity
Complete: [ 1 ]
- Stand Up. Лучшее (2016.05.22) SATRip (сезон 4, выпуск 10) - Телекомпания: ТНТ
Жанр: Юмористическое шоу, Stand up comedy
Ведущий: Руслан Белый
Актеры: Руслан Белый, Слава Комиссаренко, Юлия Ахмедова, Дмитрий Романов, Стас Старовойтов, Тимур Каргинов, Виктор Комаров, Александр Шаляпин
Новое юмористическое шоу в жанре стендап. Здесь люди рассказывают о своих проблемах. Слава богу, что они у нас есть!
Релиз от: ramzesII
Продолжительность: ~ 00:48:58
Качество видео: SATRip
Субтитры: Отсутствуют
Видео: MPEG4, XviD, 720x400 (16:9), 25.000 fps, 1 810 Kbps (0.251 bit/pixel)
Аудио: MP3, 48.0 KHz, 2 ch, 128 Kbps, CBR


Формат                                   : AVI
Формат/Информация                        : Audio Video Interleave
Размер файла                             : 682 Мбайт
Продолжительность                        : 48 м.
Общий поток                              : 1948 Кбит/сек
Программа кодирования                    : VirtualDubMod (build 2550/release)
Библиотека кодирования                   : VirtualDubMod build 2550/release
Идентификатор                            : 0
Формат                                   : MPEG-4 Visual
Профиль формата                          : Advanced Simple@L5
Параметр BVOP формата                    : 2
Параметр QPel формата                    : Нет
Параметр GMC формата                     : Без точки перехода
Параметр матрицы формата                 : Default (MPEG)
Идентификатор кодека                     : XVID
Идентификатор кодека/Подсказка           : XviD
Продолжительность                        : 48 м.
Битрейт                                  : 1810 Кбит/сек
Ширина                                   : 720 пикселей
Высота                                   : 400 пикселей
Соотношение сторон                       : 16:9
Частота кадров                           : 25,000 кадров/сек
Цветовое пространство                    : YUV
Субдискретизация насыщенности            : 4:2:0
Битовая глубина                          : 8 бит
Тип развёртки                            : Прогрессивная
Метод сжатия                             : С потерями
Бит/(Пиксели*Кадры)                      : 0.251
Размер потока                            : 634 Мбайт (93%)
Библиотека кодирования                   : XviD 73
Идентификатор                            : 1
Формат                                   : MPEG Audio
Версия формата                           : Version 1
Профиль формата                          : Layer 3
Режим                                    : Joint stereo
Расширение режима                        : MS Stereo
Идентификатор кодека                     : 55
Идентификатор кодека/Подсказка           : MP3
Продолжительность                        : 48 м.
Вид битрейта                             : Постоянный
Битрейт                                  : 128 Кбит/сек
Каналы                                   : 2 канала
Частота                                  : 48,0 КГц
Метод сжатия                             : С потерями
Размер потока                            : 44,8 Мбайт (7%)
Выравнивание                             : Разделение по промежуткам
Продолжительность промежутка             : 40  мс. (1,00 видеокадр)
Время предзагрузки промежутка            : 500  мс.


Display posts:    

Current time is: 25-Oct 06:13

All times are UTC + 3

You cannot post new topics in this forum
You cannot reply to topics in this forum
You cannot edit your posts in this forum
You cannot delete your posts in this forum
You cannot vote in polls in this forum
You cannot attach files in this forum
You cannot download files in this forum

The site does not give electronic versions of products, and is engaged only in a collecting and cataloguing of the references sent and published at a forum by our readers. If you are the legal owner of any submitted material and do not wish that the reference to it was in our catalogue, contact us and we shall immediately remove her. Files for an exchange on tracker are given by users of a site, and the administration does not bear the responsibility for their maintenance. The request to not fill in the files protected by copyrights, and also files of the illegal maintenance!