[ Сегодня идет свободное скачивание без начисления Download ]


Статистика раздачи
Нет
 
   
 
Top  
 
 
Кольца Нибелунгов / Siegfried (2005) DVDRip-AVC Информация о фильме
Название: Кольца Нибелунгов
Оригинальное название: Siegfried
Год выхода: 2005
Жанр: комедия
Режиссер: Свен Унтервальдт мл.
В ролях: Том Герхардт, Доркас Кифер, Фолькер Бюдтс, Аксель Нойманн, Ян Соснек, Даниэла Вутте, Михаэль Бранднер, Мирко Нончев, Маркус Мария Профитлич, Диана Фрэнк
О фильме:
Это было мрачное время. Зло торжествовало. И когда казалось, что все надежды умерли… Появился Зигфрид! Уже в младенчестве он обладал нечеловеческой силой. Влюбившись с первого взгляда в прекрасную Кримгильду, сестру короля Бургундии, вместе со своим верным другом — свином, Зигфрид отправляется искать любимую.
Он знает, что Кримгильда с нетерпением ждет его в своем замке, и никакие драконы не смогут его остановить. Но силы зла еще никогда не были так сильны и злобны. Одолеть их способен только храбрейший из храбрых. Если Бог не выдаст и свина не съедят…

Страна: Германия
Студия: B.A. Produktion, Constantin Film
Продолжительность: 01:25:14
Перевод: Профессиональный (многоголосый закадровый)
Файл
Кодек: AVC
Качество: DVDRip-AVC
Видео: 712x432@1013x432, 2888 kbps, 25 fps, 0,376 Bits/(Pixel*Frame)
Звук:
1. AC3, 48 kHz, 6 ch, 384 kbps - RUS [MVO]
2. AC3, 48 kHz, 6 ch, 384 kbps - DEU [Original]
Субтитры: Русские

MI

General
Unique ID : 199167121637792351560882922323994599779 (0x95D6313DD8E4732B8C1E43DD0615E163)
Complete name : F:Siegfried.2005.DVDRip-AVC_by_Bathory.mkv
Format : Matroska
Format version : Version 4 / Version 2
File size : 2.18 GiB
Duration : 1h 25mn
Overall bit rate : 3 657 Kbps
Encoded date : UTC 2016-05-22 15:49:05
Writing application : mkvmerge v8.6.1 ('Flying') 64bit
Writing library : libebml v1.3.3 + libmatroska v1.4.4
DURATION : 01:20:25.794000000
NUMBER_OF_FRAMES : 1055
NUMBER_OF_BYTES : 45896
_STATISTICS_WRITING_APP : mkvmerge v8.6.1 ('Flying') 64bit
_STATISTICS_WRITING_DATE_UTC : 2016-05-22 15:49:05
_STATISTICS_TAGS : BPS DURATION NUMBER_OF_FRAMES NUMBER_OF_BYTES
Video
ID : 1
Format : AVC
Format/Info : Advanced Video Codec
Format profile : High@L4.1
Format settings, CABAC : Yes
Format settings, ReFrames : 12 frames
Codec ID : V_MPEG4/ISO/AVC
Duration : 1h 25mn
Bit rate : 2 888 Kbps
Width : 712 pixels
Height : 432 pixels
Display aspect ratio : 2.35:1
Original display aspect ratio : 2.35:1
Frame rate mode : Constant
Frame rate : 25.000 fps
Color space : YUV
Chroma subsampling : 4:2:0
Bit depth : 8 bits
Scan type : Progressive
Bits/(Pixel*Frame) : 0.376
Stream size : 1.68 GiB (77%)
Writing library : x264 core 148 r2692 64f4e24
Encoding settings : cabac=1 / ref=12 / deblock=1:-3:-3 / analyse=0x3:0x133 / me=umh / subme=11 / psy=1 / psy_rd=1.10:0.10 / mixed_ref=1 / me_range=32 / chroma_me=1 / trellis=2 / 8x8dct=1 / cqm=0 / deadzone=21,11 / fast_pskip=0 / chroma_qp_offset=-3 / threads=12 / lookahead_threads=3 / sliced_threads=0 / nr=0 / decimate=0 / interlaced=0 / bluray_compat=0 / constrained_intra=0 / bframes=16 / b_pyramid=2 / b_adapt=2 / b_bias=0 / direct=3 / weightb=1 / open_gop=0 / weightp=2 / keyint=250 / keyint_min=25 / scenecut=0 / intra_refresh=0 / rc_lookahead=60 / rc=2pass / mbtree=1 / bitrate=2888 / ratetol=1.0 / qcomp=0.70 / qpmin=0 / qpmax=69 / qpstep=4 / cplxblur=15.0 / qblur=0.5 / vbv_maxrate=50000 / vbv_bufsize=62500 / nal_hrd=none / filler=0 / ip_ratio=1.40 / aq=2:1.00
Default : Yes
Forced : No
Audio #1
ID : 2
Format : AC-3
Format/Info : Audio Coding 3
Mode extension : CM (complete main)
Format settings, Endianness : Big
Codec ID : A_AC3
Duration : 1h 25mn
Bit rate mode : Constant
Bit rate : 384 Kbps
Channel(s) : 6 channels
Channel positions : Front: L C R, Side: L R, LFE
Sampling rate : 48.0 KHz
Bit depth : 16 bits
Compression mode : Lossy
Stream size : 234 MiB (10%)
Language : Russian
Default : Yes
Forced : No
Audio #2
ID : 3
Format : AC-3
Format/Info : Audio Coding 3
Mode extension : CM (complete main)
Format settings, Endianness : Big
Codec ID : A_AC3
Duration : 1h 25mn
Bit rate mode : Constant
Bit rate : 384 Kbps
Channel(s) : 6 channels
Channel positions : Front: L C R, Side: L R, LFE
Sampling rate : 48.0 KHz
Bit depth : 16 bits
Compression mode : Lossy
Stream size : 234 MiB (10%)
Language : German
Default : No
Forced : No
Text
ID : 4
Format : UTF-8
Codec ID : S_TEXT/UTF8
Codec ID/Info : UTF-8 Plain Text
Language : Russian
Default : Yes
Forced : No

Скриншоты

[Цитировать]



Показать сообщения:    

Текущее время: 10-Дек 06:10

Часовой пояс: UTC + 3


Вы не можете начинать темы
Вы не можете отвечать на сообщения
Вы не можете редактировать свои сообщения
Вы не можете удалять свои сообщения
Вы не можете голосовать в опросах
Вы не можете прикреплять файлы к сообщениям
Вы не можете скачивать файлы

!ВНИМАНИЕ!
Сайт не предоставляет электронные версии произведений, а занимается лишь коллекционированием и каталогизацией ссылок, присылаемых и публикуемых на форуме нашими читателями. Если вы являетесь правообладателем какого-либо представленного материала и не желаете, чтобы ссылка на него находилась в нашем каталоге, свяжитесь с нами, и мы незамедлительно удалим ее. Файлы для обмена на трекере предоставлены пользователями сайта, и администрация не несет ответственности за их содержание. Просьба не заливать файлы, защищенные авторскими правами, а также файлы нелегального содержания!