[ Сегодня идет свободное скачивание без начисления Download ]


Статистика раздачи
Нет
 
   
 
Top  
 
 
Напролом (Расширенная Версия) / Lockout (Unrated Version)«В одиночку против 500. В чем проблема?»-- Год выпуска: 2011
Страна: Франция
Производство: Canal+ [fr], Cin?, Europa Corp.
Жанр: фантастика, боевик, триллер--Режиссер: Джеймс Мэтер, Стивен Ст. Леджер
В ролях: Гай Пирс, Мэгги Грэйс, Винсент Риган, Джозеф Гилган, Ленни Джеймс, Петер Стормаре, Джеки Идо, Тим Плестер, Марк Танкерсли, Энн-Соленн Хатте, Питер Хадсон, Ник Хардин, Дэн Савье, Дамиджан Оклопджич, Грег Де Куир, Миодраг Стеванович, Чарльз Робертсон, Майкл Сопко, Пит Чеффи, Бояна Брегович, Миодраг Капор, Джейсон Райан, Йован Б. Тодорович, Милана Милунович, Патрик Кодерлье.--Перевод: Профессиональный (полное дублирование)
Субтитры: Отсутствуют--Описание: Орбитальная станция MS1 — крупнейшая космическая тюрьма, где в анабиозе содержатся тысячи опасных преступников. Ходят слухи, что над погруженными в искусственный сон узниками проводятся противозаконные эксперименты. С расследованием на станцию отправлена комиссия во главе с Эмили Уорнок, дочерью президента США. Неожиданно ситуация выходит из-под контроля, и вся станция оказывается захвачена уголовниками. Спецагент Сноу, несправедливо обвинённый в государственной измене, получает задание проникнуть в самую неприступную тюрьму во Вселенной и спасти Эмили. Это его единственный шанс вернуть себе доброе имя и получить свободу.--[kp]496888[/kp] [imdb]tt1592525[/imdb]--Качество: BDRip 720p
Продолжительность: 01:35:17--Формат: MKV
Видео кодек: AVC [email protected]
Аудио кодек: AC3
Видео: 1280x536p, 7351 kbps, 23,976 fps
Аудио: Russian, 384 kbps, 6 ch, 48 KHz
Главы: Нет--Премьера (мир): 7 апреля 2012--

Знаете ли вы, что...

• Главные отрицательные герои — братья Алекс и Хайделл. Алек Хиделл — псевдоним, который использовал Ли Харви Освальд.
• В одной из сцен Сноу отмечает: «Вопреки распространённому мнению, на самом деле я не Гудини». Гай Пирс играл Гарри Гудини в фильме «Смертельный номер» (2007).
• «Крик Вильгельма» звучит в фильме в сцене, где заключенный спотыкается и падает сразу после выхода из стазиса.
• Когда стазисные камеры первый раз открываются, можно видеть как одна из них открывается дважды.
• Когда сценарий был завершен, режиссеры убедили Бессона, что им необходимо полностью «пре-визуализировать» будущий фильм с помощью раскадровки и анимированных моделей героев и декораций.
• Пре-визуализация оказалась чрезвычайно полезна для глав технических департаментов, сумевших благодаря ей получить более четкое представление об особенностях экшн-сцен, а также каскадеров, которые уяснили себе, чего хотят добиться постановщики. А учитывая, что все технические специалисты были разного происхождения — из Бразилии, Ирландии, Франции, Сербии, — пре-визуализация успешно помогла им преодолеть языковой барьер.
• Главным инициатором создания картины выступила французская компания (она же продюсировала ленту), съемки фильма проходили в Сербии, основные роли исполнили англоговорящие актеры, и при этом на проект распространялись ирландские налоговые льготы.
• Часть объектов и декораций сочетала элементы технических конструкций и зеленого экрана — таковы, например, космический полицейский департамент в форме листка клевера, фоном которому служили Земля и космические глубины, или шоссе, где разворачивается погоня на мотоциклах.
• Эпизод в Овальном кабинете был снят на пивоваренном заводе Amstel, расположенном в пригороде сербской столицы.
• В то время как монтаж и цветокоррекция картины проходили во Франции, визуальными эффектами занималась ирландская студия Windmillane.

Media Info

Общее
Уникальный идентификатор                 : 205642051335911536755726991394726827287 (0x9AB537EC4B2C77D29E989AD56F615517)
Полное имя                               : F:\rips\напролом (расширенная версия)\Lockout.Unrated.Version.2011.BDRip.720p.mkv
Формат                                   : Matroska
Версия формата                           : Version 2
Размер файла                             : 5,15 Гбайт
Продолжительность                        : 1 ч. 35 м.
Общий поток                              : 7735 Кбит/сек
Название фильма                          : напролом (расширенная версия) (2011)
Дата кодирования                         : UTC 2013-01-06 11:39:39
Программа кодирования                    : mkvmerge v3.3.0 ('Language') сборка от May 14 2010 17:11:50
Библиотека кодирования                   : libebml v0.8.0 + libmatroska v0.9.0
Видео
Идентификатор                            : 1
Формат                                   : AVC
Формат/Информация                        : Advanced Video Codec
Профиль формата                          : [email protected]
Параметр CABAC формата                   : Да
Параметр ReFrames формата                : 9 кадров
Идентификатор кодека                     : V_MPEG4/ISO/AVC
Продолжительность                        : 1 ч. 35 м.
Битрейт                                  : 7351 Кбит/сек
Ширина                                   : 1280 пикселей
Высота                                   : 536 пикселей
Соотношение сторон                       : 2,40:1
Частота кадров                           : 23,976 кадра/сек
Цветовое пространство                    : YUV
Субдискретизация насыщенности            : 4:2:0
Битовая глубина                          : 8 бит
Тип развёртки                            : Прогрессивная
Бит/(Пиксели*Кадры)                      : 0.447
Размер потока                            : 4,79 Гбайт (93%)
Библиотека кодирования                   : x264 core 125 r2208 d9d2288
Настройки программы                      : cabac=1 / ref=9 / deblock=1:-2:-1 / analyse=0x3:0x133 / me=umh / subme=9 / psy=1 / psy_rd=1.00:0.20 / mixed_ref=1 / me_range=32 / chroma_me=1 / trellis=2 / 8x8dct=1 / cqm=0 / deadzone=21,11 / fast_pskip=0 / chroma_qp_offset=-3 / threads=6 / lookahead_threads=2 / sliced_threads=0 / nr=0 / decimate=0 / interlaced=0 / bluray_compat=0 / constrained_intra=0 / bframes=9 / b_pyramid=2 / b_adapt=2 / b_bias=0 / direct=3 / weightb=1 / open_gop=0 / weightp=2 / keyint=250 / keyint_min=23 / scenecut=40 / intra_refresh=0 / rc_lookahead=60 / rc=2pass / mbtree=0 / bitrate=7351 / ratetol=1.0 / qcomp=0.60 / qpmin=0 / qpmax=69 / qpstep=4 / cplxblur=20.0 / qblur=0.5 / vbv_maxrate=62500 / vbv_bufsize=50000 / nal_hrd=none / ip_ratio=1.40 / pb_ratio=1.30 / aq=1:1.00
Default                                  : Да
Forced                                   : Нет
Основные цвета                           : BT.709-5, BT.1361, IEC 61966-2-4, SMPTE RP177
Характеристики трансфера                 : BT.709-5, BT.1361
Коэффициенты матрицы                     : BT.709-5, BT.1361, IEC 61966-2-4 709, SMPTE RP177
Аудио
Идентификатор                            : 2
Формат                                   : AC-3
Формат/Информация                        : Audio Coding 3
Расширение режима                        : CM (complete main)
Параметр Endianness формата              : Big
Идентификатор кодека                     : A_AC3
Продолжительность                        : 1 ч. 35 м.
Вид битрейта                             : Постоянный
Битрейт                                  : 384 Кбит/сек
Каналы                                   : 6 каналов
Расположение каналов                     : Front: L C R, Side: L R, LFE
Частота                                  : 48,0 КГц
Битовая глубина                          : 16 бит
Метод сжатия                             : С потерями
Размер потока                            : 262 Мбайт (5%)
Заголовок                                : Дубляж AC3 384 kbps
Язык                                     : Russian
Default                                  : Да
Forced                                   : Да

Скриншоты





[Цитировать]



Показать сообщения:    

Текущее время: 04-Дек 23:28

Часовой пояс: UTC + 3


Вы не можете начинать темы
Вы не можете отвечать на сообщения
Вы не можете редактировать свои сообщения
Вы не можете удалять свои сообщения
Вы не можете голосовать в опросах
Вы не можете прикреплять файлы к сообщениям
Вы не можете скачивать файлы

!ВНИМАНИЕ!
Сайт не предоставляет электронные версии произведений, а занимается лишь коллекционированием и каталогизацией ссылок, присылаемых и публикуемых на форуме нашими читателями. Если вы являетесь правообладателем какого-либо представленного материала и не желаете, чтобы ссылка на него находилась в нашем каталоге, свяжитесь с нами, и мы незамедлительно удалим ее. Файлы для обмена на трекере предоставлены пользователями сайта, и администрация не несет ответственности за их содержание. Просьба не заливать файлы, защищенные авторскими правами, а также файлы нелегального содержания!