[ Сегодня идет свободное скачивание без начисления Download ]


Статистика раздачи
Нет
 
   
 
Top  
 
 
Искры и угольки / Sparks and Embers (2015) DVDRip Страна: Великобритания
Производство: Art4noise, Cinemagine, Gloucester Place Films, GSP Studios, Union Roth Capital
Год выпуска: 2015
Жанр: драма, мелодрама, комедия
Продолжительность: 01:25:01
Режиссер: Гэвин Бойтер
Автор сценария: Гэвин Бойтер
В ролях: Крис Маршалл, Аннелиз Эм, Валид Ахтар, Шон Бэйкер, Капиль Парих, Джейд Александр, Кен Бойтер
Описание: Том и Элоиза встретились по вине неблагоприятных обстоятельств, застряв в лифте после того, как Элоиза уволила Тома. Тем не менее, между ними проскочила искра. 5 лет спустя они расстаются и Элоиза возвращается в Францию. У Тома есть 45 минут, чтобы вернуть ее...

Перевод: Любительский (многоголосый, закадровый)
Субтитры: нет-Качество: DVDRip
Формат: АVI
Видео кодек: XviD
Аудио кодек: АС3
Видео: 640x352 (16:9), 25.000 fps, XviD ~844 kbps avg, 0.125 bit/pixel
Аудио: 48.0 kHz, AC3 Dolby Digital, 2/0 (L,R) ch, ~128 kbps
Дата премьеры (мир): 20 октября 2015
ПРИМЕЧАНИЕ: ПРИСУТСТВУЕТ РЕКЛАМА!

Media Info

General
Format : AVI
Format/Info : Audio Video Interleave
Overall bit rate : 1012 Kbps
Writing application : VirtualDubMod 1.5.10.3 | (build 2550/release)
Writing library : VirtualDubMod build 2550/release
Video
ID : 0
Format : MPEG-4 Visual
Format profile : Advanced Simple@L5
Format settings, BVOP : 2
Format settings, QPel : No
Format settings, GMC : No warppoints
Format settings, Matrix : Custom
Codec ID : XVID
Codec ID/Hint : XviD
Bit rate : 844 Kbps
Width : 640 pixels
Height : 352 pixels
Display aspect ratio : 16:9
Frame rate : 25.000 fps
Color space : YUV
Chroma subsampling : 4:2:0
Bit depth : 8 bits
Scan type : Progressive
Compression mode : Lossy
Bits/(Pixel*Frame) : 0.125
Stream size : 4.27 MiB (83%)
Writing library : XviD 1.2.1 (UTC 2008-12-04)
Audio
ID : 1
Format : AC-3
Format/Info : Audio Coding 3
Mode extension : CM (complete main)
Format settings, Endianness : Big
Codec ID : 2000
Bit rate mode : Constant
Bit rate : 128 Kbps
Channel(s) : 2 channels
Channel positions : Front: L R
Sampling rate : 48.0 KHz
Compression mode : Lossy
Stream size : 794 KiB (15%)
Alignment : Split accross interleaves
Interleave, duration : 40 ms (1.01 video frame)
Interleave, preload duration : 500 ms

Скриншоты

[Цитировать]



Показать сообщения:    

Текущее время: 11-Дек 07:14

Часовой пояс: UTC + 3


Вы не можете начинать темы
Вы не можете отвечать на сообщения
Вы не можете редактировать свои сообщения
Вы не можете удалять свои сообщения
Вы не можете голосовать в опросах
Вы не можете прикреплять файлы к сообщениям
Вы не можете скачивать файлы

!ВНИМАНИЕ!
Сайт не предоставляет электронные версии произведений, а занимается лишь коллекционированием и каталогизацией ссылок, присылаемых и публикуемых на форуме нашими читателями. Если вы являетесь правообладателем какого-либо представленного материала и не желаете, чтобы ссылка на него находилась в нашем каталоге, свяжитесь с нами, и мы незамедлительно удалим ее. Файлы для обмена на трекере предоставлены пользователями сайта, и администрация не несет ответственности за их содержание. Просьба не заливать файлы, защищенные авторскими правами, а также файлы нелегального содержания!