[ Today is free to download without increasing Download ]

DL-List and Torrent activity
Искры и угольки / Sparks and Embers (2015) DVDRip Страна: Великобритания
Производство: Art4noise, Cinemagine, Gloucester Place Films, GSP Studios, Union Roth Capital
Год выпуска: 2015
Жанр: драма, мелодрама, комедия
Продолжительность: 01:25:01
Режиссер: Гэвин Бойтер
Автор сценария: Гэвин Бойтер
В ролях: Крис Маршалл, Аннелиз Эм, Валид Ахтар, Шон Бэйкер, Капиль Парих, Джейд Александр, Кен Бойтер
Описание: Том и Элоиза встретились по вине неблагоприятных обстоятельств, застряв в лифте после того, как Элоиза уволила Тома. Тем не менее, между ними проскочила искра. 5 лет спустя они расстаются и Элоиза возвращается в Францию. У Тома есть 45 минут, чтобы вернуть ее...

Перевод: Любительский (многоголосый, закадровый)
Субтитры: нет-Качество: DVDRip
Формат: АVI
Видео кодек: XviD
Аудио кодек: АС3
Видео: 640x352 (16:9), 25.000 fps, XviD ~844 kbps avg, 0.125 bit/pixel
Аудио: 48.0 kHz, AC3 Dolby Digital, 2/0 (L,R) ch, ~128 kbps
Дата премьеры (мир): 20 октября 2015

Media Info

Format : AVI
Format/Info : Audio Video Interleave
Overall bit rate : 1012 Kbps
Writing application : VirtualDubMod | (build 2550/release)
Writing library : VirtualDubMod build 2550/release
ID : 0
Format : MPEG-4 Visual
Format profile : Advanced Simple@L5
Format settings, BVOP : 2
Format settings, QPel : No
Format settings, GMC : No warppoints
Format settings, Matrix : Custom
Codec ID : XVID
Codec ID/Hint : XviD
Bit rate : 844 Kbps
Width : 640 pixels
Height : 352 pixels
Display aspect ratio : 16:9
Frame rate : 25.000 fps
Color space : YUV
Chroma subsampling : 4:2:0
Bit depth : 8 bits
Scan type : Progressive
Compression mode : Lossy
Bits/(Pixel*Frame) : 0.125
Stream size : 4.27 MiB (83%)
Writing library : XviD 1.2.1 (UTC 2008-12-04)
ID : 1
Format : AC-3
Format/Info : Audio Coding 3
Mode extension : CM (complete main)
Format settings, Endianness : Big
Codec ID : 2000
Bit rate mode : Constant
Bit rate : 128 Kbps
Channel(s) : 2 channels
Channel positions : Front: L R
Sampling rate : 48.0 KHz
Compression mode : Lossy
Stream size : 794 KiB (15%)
Alignment : Split accross interleaves
Interleave, duration : 40 ms (1.01 video frame)
Interleave, preload duration : 500 ms



Display posts:    

Current time is: 27-Oct 02:12

All times are UTC + 3

You cannot post new topics in this forum
You cannot reply to topics in this forum
You cannot edit your posts in this forum
You cannot delete your posts in this forum
You cannot vote in polls in this forum
You cannot attach files in this forum
You cannot download files in this forum

The site does not give electronic versions of products, and is engaged only in a collecting and cataloguing of the references sent and published at a forum by our readers. If you are the legal owner of any submitted material and do not wish that the reference to it was in our catalogue, contact us and we shall immediately remove her. Files for an exchange on tracker are given by users of a site, and the administration does not bear the responsibility for their maintenance. The request to not fill in the files protected by copyrights, and also files of the illegal maintenance!