[ Today is free to download without increasing Download ]

DL-List and Torrent activity
Complete: [ 2 ]
Братья из Гримсби / Grimsby (2016) Страна: Великобритания Австралия
Производство: Columbia Pictures, LStar Capital, SPE, Village Roadshow Pictures, Working Title Films
Год выпуска: 2016
Жанр: боевик, комедия
Продолжительность: 01:23:25
Режиссер: Луи Летерье
Авторы сценария: Саша Барон Коэн, Фил Джонстон, Питер Бейнхэм
В ролях: Саша Барон Коэн, Марк Стронг, Ребел Уилсон, Пенелопа Крус, Айла Фишер, Габури Сидибе, Аннабелль Уоллис, Иэн МакШейн
Описание: Сверхсекретная операция, которую выполняет образцовый спецагент, с треском провалена из-за некстати свалившегося на его голову неадекватного брата — оголтелого футбольного фаната и полного беспредельщика. Теперь герою предстоит спасти свою жизнь и вдобавок планету от нависшей над ней угрозы — практически невыполнимая задача в тандеме с вновь приобретенным родственником...

Перевод: Профессиональный (полное дублирование) | звук с CAMRip
Субтитры: нет-Качество: WEB-DLRip
Формат: АVI
Видео кодек: XviD
Аудио кодек: АС3
Видео: 720x304 (2.35:1), 23.976 fps, XviD ~1 454 kbps avg, 0.277 bit/pixel
Аудио: 48.0 kHz, AC3 Dolby Digital, 2/0 (L,R) ch, ~384 kbps
Дата премьеры (мир): 24 февраля 2016
Дата премьеры (РФ): 10 марта 2016, «WDSSPR»

Media Info

Format : AVI
Format/Info : Audio Video Interleave
Overall bit rate : 1 849 Kbps
Writing application : VirtualDubMod | (build 2550/release)
Writing library : VirtualDubMod build 2550/release
Original source form/Name : Movie
ID : 0
Format : MPEG-4 Visual
Format profile : Advanced Simple@L5
Format settings, BVOP : 2
Format settings, QPel : No
Format settings, GMC : No warppoints
Format settings, Matrix : Custom
Codec ID : XVID
Codec ID/Hint : XviD
Bit rate : 1 454 Kbps
Width : 720 pixels
Height : 304 pixels
Display aspect ratio : 2.35:1
Frame rate : 23.976 fps
Color space : YUV
Chroma subsampling : 4:2:0
Bit depth : 8 bits
Scan type : Progressive
Compression mode : Lossy
Bits/(Pixel*Frame) : 0.277
Stream size : 10.2 MiB (79%)
Writing library : XviD 1.2.1 (UTC 2008-12-04)
ID : 1
Format : AC-3
Format/Info : Audio Coding 3
Mode extension : CM (complete main)
Format settings, Endianness : Big
Codec ID : 2000
Bit rate mode : Constant
Bit rate : 384 Kbps
Channel(s) : 2 channels
Channel positions : Front: L R
Sampling rate : 48.0 KHz
Compression mode : Lossy
Delay relative to video : 15ms
Stream size : 2.69 MiB (21%)
Alignment : Split accross interleaves
Interleave, preload duration : 500 ms



Display posts:    

Current time is: 23-Oct 12:35

All times are UTC + 3

You cannot post new topics in this forum
You cannot reply to topics in this forum
You cannot edit your posts in this forum
You cannot delete your posts in this forum
You cannot vote in polls in this forum
You cannot attach files in this forum
You cannot download files in this forum

The site does not give electronic versions of products, and is engaged only in a collecting and cataloguing of the references sent and published at a forum by our readers. If you are the legal owner of any submitted material and do not wish that the reference to it was in our catalogue, contact us and we shall immediately remove her. Files for an exchange on tracker are given by users of a site, and the administration does not bear the responsibility for their maintenance. The request to not fill in the files protected by copyrights, and also files of the illegal maintenance!