[ Сегодня идет свободное скачивание без начисления Download ]


Статистика раздачи
Нет
 
   
 
Top  
 
 
- Фёдор Самородов | М10962А Расширенные возможности Windows PowerShell (2015) PCRec - Автор (режиссер): Фёдор Самородов
Производство: Специалист
Жанр: Администрирование, Windows PowerShell
Описание:
10962A: Advanced Automated Administration with Windows PowerShell
На курсе детально изучается сложные программные возможности технологии PowerShell версии 3.0.
PowerShell – средство автоматизации, позволяющее упростить решение большинства административных задач.
Курс предназначен для: администраторов Windows Server и серверного ПО от Microsoft
Продолжительность: 02:37:00
Качество видео: PCRec
Видео: AVC/H.264, 1280x720, ~269 Kbps
Аудио: AAC, 2 ch, 48.0 KHz, VBR

Mediainfo:

General
Complete name                            : E:\[Специалист] М10962А Расширенные возможности Windows PowerShell\010. Знакомство.mp4
Format                                   : MPEG-4
Format profile                           : Base Media / Version 2
Codec ID                                 : mp42
File size                                : 50.0 MiB
Duration                                 : 16mn 37s
Overall bit rate mode                    : Variable
Overall bit rate                         : 420 Kbps
Encoded date                             : UTC 2015-10-01 12:36:38
Tagged date                              : UTC 2015-10-01 12:36:38
Video
ID                                       : 1
Format                                   : AVC
Format/Info                              : Advanced Video Codec
Format profile                           : [url=mailto:High@L3.1]High@L3.1[/url]
Format settings, CABAC                   : Yes
Format settings, ReFrames                : 5 frames
Format settings, GOP                     : M=4, N=90
Codec ID                                 : avc1
Codec ID/Info                            : Advanced Video Coding
Duration                                 : 16mn 37s
Bit rate                                 : 269 Kbps
Width                                    : 1 280 pixels
Height                                   : 720 pixels
Display aspect ratio                     : 16:9
Frame rate mode                          : Constant
Frame rate                               : 29.970 fps
Color space                              : YUV
Chroma subsampling                       : 4:2:0
Bit depth                                : 8 bits
Scan type                                : Progressive
Bits/(Pixel*Frame)                       : 0.010
Stream size                              : 31.9 MiB (64%)
Writing library                          : x264 core 148 r11 73ae2d1
Encoding settings                        : cabac=1 / ref=5 / deblock=1:0:0 / analyse=0x3:0x113 / me=umh / subme=8 / psy=1 / psy_rd=1.00:0.00 / mixed_ref=1 / me_range=16 / chroma_me=1 / trellis=1 / 8x8dct=1 / cqm=0 / deadzone=21,11 / fast_pskip=1 / chroma_qp_offset=-2 / threads=22 / lookahead_threads=3 / sliced_threads=0 / nr=0 / decimate=1 / interlaced=0 / bluray_compat=0 / stitchable=1 / constrained_intra=0 / bframes=3 / b_pyramid=2 / b_adapt=2 / b_bias=0 / direct=3 / weightb=1 / open_gop=0 / weightp=2 / keyint=infinite / keyint_min=29 / scenecut=40 / intra_refresh=0 / rc_lookahead=50 / rc=crf / mbtree=1 / crf=20.0 / qcomp=0.60 / qpmin=5 / qpmax=69 / qpstep=4 / vbv_maxrate=2750 / vbv_bufsize=7500 / crf_max=0.0 / nal_hrd=none / filler=0 / ip_ratio=1.40 / aq=1:1.00
Encoded date                             : UTC 2015-10-01 12:36:38
Tagged date                              : UTC 2015-10-01 12:36:38
Color primaries                          : BT.709
Transfer characteristics                 : BT.709
Matrix coefficients                      : BT.709
Audio
ID                                       : 2
Format                                   : AAC
Format/Info                              : Advanced Audio Codec
Format profile                           : LC
Codec ID                                 : 40
Duration                                 : 16mn 37s
Bit rate mode                            : Variable
Bit rate                                 : 147 Kbps
Channel count                            : 2 channels
Channel positions                        : Front: L R
Sampling rate                            : 48.0 KHz
Compression mode                         : Lossy
Delay relative to video                  : 67ms
Stream size                              : 17.5 MiB (35%)
Encoded date                             : UTC 2015-10-01 12:36:38
Tagged date                              : UTC 2015-10-01 12:36:38

Дополнительная информация:

Модуль 1. Создание сложных функций
- Преобразование команды в функцию
- Создание модуля
- Работа с параметрами
- Использование нескольких объектов в функциях
- Подключение функции к конвейеру
- Генерация результата работы функции
- Документирование функций
- Поддержка –WhatIf и –Confirm
Модуль 2. Использование командлетов и .Net Framework
- Запуск командлетов
- Использование .Net Framework
Модуль 3. Написание управляющих сценариев
- Механизм управляющих сценариев
- Написание управляющих сценариев
Модуль 4. Обработка ошибок
- Механизм перехвата ошибок
- Обработка ошибок в сценариях
Модуль 5. Использование данных в формате XML
- Чтение и использование данных в формате XML
Модуль 6. Управление конфигурациями
- Механизм конфигураций
- Создание и развёртывание конфигураций
Модуль 7. Анализ и отладка сценариев
- Отладка в PowerShell
- Анализ сценариев
Модуль 8. Рабочие процессы в PowerShell
- Механизм рабочих процессов
Скриншоты:

[Цитировать]



Показать сообщения:    

Текущее время: 11-Дек 16:51

Часовой пояс: UTC + 3


Вы не можете начинать темы
Вы не можете отвечать на сообщения
Вы не можете редактировать свои сообщения
Вы не можете удалять свои сообщения
Вы не можете голосовать в опросах
Вы не можете прикреплять файлы к сообщениям
Вы не можете скачивать файлы

!ВНИМАНИЕ!
Сайт не предоставляет электронные версии произведений, а занимается лишь коллекционированием и каталогизацией ссылок, присылаемых и публикуемых на форуме нашими читателями. Если вы являетесь правообладателем какого-либо представленного материала и не желаете, чтобы ссылка на него находилась в нашем каталоге, свяжитесь с нами, и мы незамедлительно удалим ее. Файлы для обмена на трекере предоставлены пользователями сайта, и администрация не несет ответственности за их содержание. Просьба не заливать файлы, защищенные авторскими правами, а также файлы нелегального содержания!