[ Сегодня идет свободное скачивание без начисления Download ]


Статистика раздачи
Нет
 
   
 
Top  
 
 
На дороге / On the Road
«Навстречу самому себе»
?Год выпуска: 2012
?Страна: Франция, Великобритания, США, Бразилия
?Производство: American Zoetrope, Canal+ [fr]
?Жанр: Драма, приключения
?Режиссёр: Уолтер Саллес
?В ролях: Гаррет Хедлунд, Сэм Райли, Кристен Стюарт, Эми Адамс, Том Стёрридж, Дэнни Морган, Алиси Брага, Элизабет Мосс, Кирстен Данст, Вигго Мортенсен, Стив Бушеми
?Перевод: Дублированный + Оригинал (Английский)
?Озвучка: Неизвестно
?Субтитры: Russian, English, French (UTF-8)
?Описание: После смерти отца начинающий нью-йоркский писатель Сэл Парадайз знакомится с молодым и очаровательным Дином Мориарти, только что вышедшим из тюрьмы и женатым на соблазнительной красотке Марилу. Они мгновенно становятся неразлучными друзьями. Стремясь к свободе, Сэл, Дин и Марилу порывают с условностями жизни и отправляются в путешествие навстречу миру, людям и самим себе.

?Качество: BDRip 720p
?Продолжительность: 02:19:42 час.
?Формат: MKV
?Главы: Есть
?Видео кодек: AVC
?Аудио кодек: AC3
?Видео: 1280x546 (2.35:1), 24 fps, ~7502 Kbps, 0.447 bit/ pixel
?Аудио №1: AC3, 48 kHz, 6 ch, ~384 Kbps [Russian]
?Аудио №2: AC3, 48 kHz, 6 ch, ~640 Kbps [English]

MediaInfo

General
Unique ID :
0354241258564396224990762105325828240 (0xAD4C9CF47DDF37CB9F7A0ECC4BDD3890)
Complete name : F:Загрузки µTorrentNa.doroge.2012.D.BDRip.720p.mkv
Format : Matroska
Format version : Version 2
File size : 8.32 GiB
Duration : 2h 19mn
Overall bit rate : 8 526 Kbps
Movie name : IRONCLUB
Encoded date : UTC 2012-11-10 17:43:05
Writing application : mkvmerge v4.9.1 ('Ich will') built on Jul 11 2011 23:53:15
Writing library : libebml v1.2.1 + libmatroska v1.1.1
Video
ID : 1
Format : AVC
Format/Info : Advanced Video Codec
Format profile : High@L4.1
Format settings, CABAC : Yes
Format settings, ReFrames : 11 frames
Codec ID : V_MPEG4/ISO/AVC
Duration : 2h 19mn
Bit rate : 7 502 Kbps
Width : 1 280 pixels
Height : 546 pixels
Display aspect ratio : 2.35:1
Frame rate : 24.000 fps
Color space : YUV
Chroma subsampling : 4:2:0
Bit depth : 8 bits
Scan type : Progressive
Bits/(Pixel*Frame) : 0.447
Stream size : 7.15 GiB (86%)
Title : On.the.Road.2012.720p.BluRay.DD5.1.x264-HiDt
Writing library : x264 core 128 r2216 198a7ea
Encoding settings : cabac=1 / ref=11 / deblock=1:-3:-3 / analyse=0x3:0x113 / me=umh / subme=11 / psy=1 / psy_rd=0.98:0.00 / mixed_ref=1 / me_range=64 / chroma_me=1 / trellis=2 / 8x8dct=1 / cqm=0 / deadzone=21,11 / fast_pskip=0 / chroma_qp_offset=-2 / threads=12 / lookahead_threads=2 / sliced_threads=0 / nr=0 / decimate=1 / interlaced=0 / bluray_compat=0 / constrained_intra=0 / bframes=7 / b_pyramid=2 / b_adapt=2 / b_bias=0 / direct=3 / weightb=1 / open_gop=0 / weightp=2 / keyint=240 / keyint_min=24 / scenecut=40 / intra_refresh=0 / rc_lookahead=120 / rc=2pass / mbtree=1 / bitrate=7502 / ratetol=1.0 / qcomp=0.68 / qpmin=0 / qpmax=69 / qpstep=4 / cplxblur=20.0 / qblur=0.5 / ip_ratio=1.40 / aq=1:0.75
Language : English
Default : Yes
Forced : Yes
Audio #1
ID : 2
Format : AC-3
Format/Info : Audio Coding 3
Mode extension : CM (complete main)
Format settings, Endianness : Big
Codec ID : A_AC3
Duration : 2h 19mn
Bit rate mode : Constant
Bit rate : 384 Kbps
Channel(s) : 6 channels
Channel positions : Front: L C R, Side: L R, LFE
Sampling rate : 48.0 KHz
Bit depth : 16 bits
Compression mode : Lossy
Stream size : 384 MiB (5%)
Title : DD 5.1 @ 384 kbps - Dub, R5
Language : Russian
Default : Yes
Forced : Yes
Audio #2
ID : 3
Format : AC-3
Format/Info : Audio Coding 3
Mode extension : CM (complete main)
Format settings, Endianness : Big
Codec ID : A_AC3
Duration : 2h 19mn
Bit rate mode : Constant
Bit rate : 640 Kbps
Channel(s) : 6 channels
Channel positions : Front: L C R, Side: L R, LFE
Sampling rate : 48.0 KHz
Bit depth : 16 bits
Compression mode : Lossy
Stream size : 640 MiB (8%)
Title : DD 5.1 @ 640 kbps
Language : English
Default : No
Forced : No
Text #1
ID : 4
Format : UTF-8
Codec ID : S_TEXT/UTF8
Codec ID/Info : UTF-8 Plain Text
Language : Russian
Default : No
Forced : No
Text #2
ID : 5
Format : UTF-8
Codec ID : S_TEXT/UTF8
Codec ID/Info : UTF-8 Plain Text
Language : English
Default : No
Forced : No
Text #3
ID : 6
Format : UTF-8
Codec ID : S_TEXT/UTF8
Codec ID/Info : UTF-8 Plain Text
Language : French
Default : No
Forced : No
Menu
00:00:00.000 : en:Chapter 01
00:12:04.083 : en:Chapter 02
00:22:17.833 : en:Chapter 03
00:32:01.166 : en:Chapter 04
00:44:21.958 : en:Chapter 05
00:56:19.250 : en:Chapter 06
01:04:28.791 : en:Chapter 07
01:14:48.125 : en:Chapter 08
01:28:41.416 : en:Chapter 09
01:39:58.416 : en:Chapter 10
01:51:41.500 : en:Chapter 11
02:04:02.583 : en:Chapter 12

Скриншоты

[Цитировать]



Показать сообщения:    

Текущее время: 10-Дек 10:01

Часовой пояс: UTC + 3


Вы не можете начинать темы
Вы не можете отвечать на сообщения
Вы не можете редактировать свои сообщения
Вы не можете удалять свои сообщения
Вы не можете голосовать в опросах
Вы не можете прикреплять файлы к сообщениям
Вы не можете скачивать файлы

!ВНИМАНИЕ!
Сайт не предоставляет электронные версии произведений, а занимается лишь коллекционированием и каталогизацией ссылок, присылаемых и публикуемых на форуме нашими читателями. Если вы являетесь правообладателем какого-либо представленного материала и не желаете, чтобы ссылка на него находилась в нашем каталоге, свяжитесь с нами, и мы незамедлительно удалим ее. Файлы для обмена на трекере предоставлены пользователями сайта, и администрация не несет ответственности за их содержание. Просьба не заливать файлы, защищенные авторскими правами, а также файлы нелегального содержания!