[ Сегодня идет свободное скачивание без начисления Download ]


Статистика раздачи
Скачал: [ 2 ]
 
   
 
Top  
 
 
Нож для выживания / Survival Knife Страна: США
Жанр: ужасы, триллер
Год выпуска: 2016
Продолжительность: 01:42:03
Перевод: Одноголосый закадровый Васька Куролесов по субтитрам gordana75
Cубтитры: нет
Оригинальная аудиодорожка: нет
Режиссер: Майк МакКаун / Mike McKown
В ролях: Даниэль Донахью, Мелоди Джой, Тара Дэвис, Джош Эбел и др.
Описание: Выжившая после атаки серийного убийцы девушка, пытаясь преодолеть последствия убийства ее друзей и тот факт, что она сама жестоко убила нападавшего, опасается, что травма пробудила темную сторону ее психики.

Сэмпл: http://multi-up.com/1103232
Качество видео: WEBRip
Формат видео: AVI
Видео: XviD , 1726 Кбит/с, 720x384, 23.976 fps
Аудио: MP3, 2 ch, 192 Кбит/с, 48.0 KHz

MediaInfo

General
Complete name : G:\Survival Knife_2016_WEBRip_KypoJIecoB.avi
Format : AVI
Format/Info : Audio Video Interleave
File size : 1.37 GiB
Duration : 1h 42mn
Overall bit rate : 1 927 Kbps
Video
ID : 0
Format : MPEG-4 Visual
Format profile : Advanced Simple@L5
Format settings, BVOP : 2
Format settings, QPel : No
Format settings, GMC : No warppoints
Format settings, Matrix : Default (H.263)
Codec ID : XVID
Codec ID/Hint : XviD
Duration : 1h 42mn
Bit rate : 1 726 Kbps
Width : 720 pixels
Height : 384 pixels
Display aspect ratio : 1.85:1
Frame rate : 23.976 fps
Color space : YUV
Chroma subsampling : 4:2:0
Bit depth : 8 bits
Scan type : Progressive
Compression mode : Lossy
Bits/(Pixel*Frame) : 0.260
Stream size : 1.23 GiB (90%)
Writing library : XviD 67
Audio
ID : 1
Format : MPEG Audio
Format version : Version 1
Format profile : Layer 3
Codec ID : 55
Codec ID/Hint : MP3
Duration : 1h 42mn
Bit rate mode : Constant
Bit rate : 192 Kbps
Channel(s) : 2 channels
Sampling rate : 48.0 KHz
Compression mode : Lossy
Stream size : 140 MiB (10%)
Alignment : Split accross interleaves
Interleave, duration : 42 ms (1.01 video frame)
Writing library : LAMELAME_MAJOR_VERSI

Скриншот c названием фильма

Скриншоты

[Цитировать]



Показать сообщения:    

Текущее время: 07-Дек 23:12

Часовой пояс: UTC + 3


Вы не можете начинать темы
Вы не можете отвечать на сообщения
Вы не можете редактировать свои сообщения
Вы не можете удалять свои сообщения
Вы не можете голосовать в опросах
Вы не можете прикреплять файлы к сообщениям
Вы не можете скачивать файлы

!ВНИМАНИЕ!
Сайт не предоставляет электронные версии произведений, а занимается лишь коллекционированием и каталогизацией ссылок, присылаемых и публикуемых на форуме нашими читателями. Если вы являетесь правообладателем какого-либо представленного материала и не желаете, чтобы ссылка на него находилась в нашем каталоге, свяжитесь с нами, и мы незамедлительно удалим ее. Файлы для обмена на трекере предоставлены пользователями сайта, и администрация не несет ответственности за их содержание. Просьба не заливать файлы, защищенные авторскими правами, а также файлы нелегального содержания!