[ Today is free to download without increasing Download ]

DL-List and Torrent activity
Complete: [ 5 ]
Нож для выживания / Survival Knife Страна: США
Жанр: ужасы, триллер
Год выпуска: 2016
Продолжительность: 01:42:03
Перевод: Одноголосый закадровый Васька Куролесов по субтитрам gordana75
Cубтитры: нет
Оригинальная аудиодорожка: нет
Режиссер: Майк МакКаун / Mike McKown
В ролях: Даниэль Донахью, Мелоди Джой, Тара Дэвис, Джош Эбел и др.
Описание: Выжившая после атаки серийного убийцы девушка, пытаясь преодолеть последствия убийства ее друзей и тот факт, что она сама жестоко убила нападавшего, опасается, что травма пробудила темную сторону ее психики.

Сэмпл: http://multi-up.com/1103232
Качество видео: WEBRip
Формат видео: AVI
Видео: XviD , 1726 Кбит/с, 720x384, 23.976 fps
Аудио: MP3, 2 ch, 192 Кбит/с, 48.0 KHz


Complete name : G:\Survival Knife_2016_WEBRip_KypoJIecoB.avi
Format : AVI
Format/Info : Audio Video Interleave
File size : 1.37 GiB
Duration : 1h 42mn
Overall bit rate : 1 927 Kbps
ID : 0
Format : MPEG-4 Visual
Format profile : Advanced Simple@L5
Format settings, BVOP : 2
Format settings, QPel : No
Format settings, GMC : No warppoints
Format settings, Matrix : Default (H.263)
Codec ID : XVID
Codec ID/Hint : XviD
Duration : 1h 42mn
Bit rate : 1 726 Kbps
Width : 720 pixels
Height : 384 pixels
Display aspect ratio : 1.85:1
Frame rate : 23.976 fps
Color space : YUV
Chroma subsampling : 4:2:0
Bit depth : 8 bits
Scan type : Progressive
Compression mode : Lossy
Bits/(Pixel*Frame) : 0.260
Stream size : 1.23 GiB (90%)
Writing library : XviD 67
ID : 1
Format : MPEG Audio
Format version : Version 1
Format profile : Layer 3
Codec ID : 55
Codec ID/Hint : MP3
Duration : 1h 42mn
Bit rate mode : Constant
Bit rate : 192 Kbps
Channel(s) : 2 channels
Sampling rate : 48.0 KHz
Compression mode : Lossy
Stream size : 140 MiB (10%)
Alignment : Split accross interleaves
Interleave, duration : 42 ms (1.01 video frame)
Writing library : LAMELAME_MAJOR_VERSI

Скриншот c названием фильма



Display posts:    

Current time is: 26-Oct 01:45

All times are UTC + 3

You cannot post new topics in this forum
You cannot reply to topics in this forum
You cannot edit your posts in this forum
You cannot delete your posts in this forum
You cannot vote in polls in this forum
You cannot attach files in this forum
You cannot download files in this forum

The site does not give electronic versions of products, and is engaged only in a collecting and cataloguing of the references sent and published at a forum by our readers. If you are the legal owner of any submitted material and do not wish that the reference to it was in our catalogue, contact us and we shall immediately remove her. Files for an exchange on tracker are given by users of a site, and the administration does not bear the responsibility for their maintenance. The request to not fill in the files protected by copyrights, and also files of the illegal maintenance!