[ Сегодня идет свободное скачивание без начисления Download ]


Статистика раздачи
Нет
 
   
 
Top  
 
 
Чудо пляж / Miracle Beach Страна: США
Жанр: мелодрама, комедия
Год выпуска: 1992
Продолжительность: 01:24:03
Перевод: Профессиональный (двухголосый закадровый) НТВ+
Cубтитры: нет
Режиссер: Скот Снайдер / Skott Snider
В ролях: Дин Кэмерон, Эми Доленц, Фелисити Ватерман, Брайан Перри, Алексис Аркетт, Пэт Морита, Аллен Гарфилд, Мартин Мулл, Винсент Скьявелли, Брэд Грюнберг и др.
Описание: Скотти (Дин Кэмерон), выгнанный с работы, лишившийся жилья, заставший свою подружку в постели с другим, отвергнутый прекрасной девушкой, в которую влюбился с первого взгляда, сидит на пляже рядом с бомжом (Морита). Тот, разжалобившись, дарит ему старую бутылку и одеяло. Тем временем повелитель джинов выписывает командировку на Землю симпатичной подчиненной (Доленц). Пленницей подаренной Скотти бутылки она и оказалась. Засыпая, Скотти пожелал очутиться в теплой постели с двумя красавицами. И утром проснулся в роскошной кровати с двумя очаровательными девицами прямо на... пляже. Парнем он оказался сообразительным, сразу ухватил бутылку и побежал загадывать желания... Единственное, чего не могла пленница, — так это влюблять в Скотти девушек. Ну а что можно нажелать в двадцать лет, зритель может легко догадаться — есть в этой легкой и глупенькой комедии — и любовь, и ненавязчивая мораль, и хэппи-энд. Имеется также огромное количество полуобнаженных и обнаженных красавиц...
Качество видео: HDTVRip [Исходник 1080i]
Формат видео: AVI
Видео: 720x400 (1.80:1), 25 fps, XviD build 50 ~2134 kbps avg, 0.30 bit/pixel
Аудио: 48 kHz, AC3 Dolby Digital, 2/0 (L,R) ch, ~192 kbps

MediaInfo

Чудо-пляж - Miracle Beach [Rip by Ledy_X].avi
Format : AVI
Format/Info : Audio Video Interleave
File size : 1.37 GiB
Duration : 1h 24mn
Overall bit rate : 2 336 Kbps
Movie name : Чудо-пляж - Miracle Beach [Rip by Ledy_X]
Director : Rip by Ledy_X
Writing application : VirtualDubMod 1.5.10.3 | www.virtualdub-fr.org || (build 2550/release)
Copyright : Edich2
Comment : RuTracker.org
Video
ID : 0
Format : MPEG-4 Visual
Format profile : Advanced Simple@L5
Format settings, BVOP : 2
Format settings, QPel : No
Format settings, GMC : No warppoints
Format settings, Matrix : Default (MPEG)
Codec ID : DX50
Codec ID/Hint : DivX 5
Duration : 1h 24mn
Bit rate : 2 135 Kbps
Width : 720 pixels
Height : 400 pixels
Display aspect ratio : 16:9
Frame rate : 25.000 fps
Color space : YUV
Chroma subsampling : 4:2:0
Bit depth : 8 bits
Scan type : Progressive
Compression mode : Lossy
Bits/(Pixel*Frame) : 0.296
Stream size : 1.25 GiB (91%)
Writing library : XviD 1.2.1 (UTC 2008-12-04)
Audio
ID : 1
Format : AC-3
Format/Info : Audio Coding 3
Mode extension : CM (complete main)
Format settings, Endianness : Big
Codec ID : 2000
Duration : 1h 24mn
Bit rate mode : Constant
Bit rate : 192 Kbps
Channel(s) : 2 channels
Channel positions : Front: L R
Sampling rate : 48.0 KHz
Bit depth : 16 bits
Compression mode : Lossy
Stream size : 115 MiB (8%)
Alignment : Split accross interleaves
Interleave, duration : 40 ms (1.00 video frame)
Interleave, preload duration : 500 ms

Скриншоты


[Цитировать]



Показать сообщения:    

Текущее время: 26-Фев 17:45

Часовой пояс: UTC + 3


Вы не можете начинать темы
Вы не можете отвечать на сообщения
Вы не можете редактировать свои сообщения
Вы не можете удалять свои сообщения
Вы не можете голосовать в опросах
Вы не можете прикреплять файлы к сообщениям
Вы не можете скачивать файлы

!ВНИМАНИЕ!
Сайт не предоставляет электронные версии произведений, а занимается лишь коллекционированием и каталогизацией ссылок, присылаемых и публикуемых на форуме нашими читателями. Если вы являетесь правообладателем какого-либо представленного материала и не желаете, чтобы ссылка на него находилась в нашем каталоге, свяжитесь с нами, и мы незамедлительно удалим ее. Файлы для обмена на трекере предоставлены пользователями сайта, и администрация не несет ответственности за их содержание. Просьба не заливать файлы, защищенные авторскими правами, а также файлы нелегального содержания!