[ Сегодня идет свободное скачивание без начисления Download ]


Статистика раздачи
Нет
 
   
 
Top  
 
 

Багровые реки / Les rivi?res pourpres

Багровые реки / Les rivieres pourpres
«Evil rises to new heights.»
?Год выпуска: 2000
?Страна: Франция
?Производство: Canal+ [fr]
?Жанр: Триллер, криминал, детектив
?Режиссёр: Матьё Кассовиц
?В ролях: Жан Рено, Венсан Кассель, Надя Фарес, Доминик Санда, Карим Бельхадра, Жан-Пьер Кассель, Дидье Фламан, Франсуа Леванталь, Франсин Берже, Филипп Наон
?Перевод: Профессиональный (полное дублирование)
?Озвучка: Неизвестно
?Субтитры: Отсутствуют
?Описание: В престижном колледже в Альпах совершено зверское убийство, которое расследует опытный комиссар полиции Пьер Ньеманс. Тем временем в другом местечке происходит еще одно, весьма странное преступление — кто-то раскапывает и оскверняет могилу 10-летней девочки.
Это дело ведет молодой детектив Макс Керкерьян. Кажется, между данными событиями нет связи. Но она существует! И когда оба полицейских обнаруживают ее, доселе виденные ими заурядные злодеяния постепенно меркнут по сравнению с тем сердцем тьмы, куда приведут их поиски правды. Смертельно опасной правды…

?Качество: HDRip-AVC
?Продолжительность: 01:45:47
?Формат: MKV
?Главы: Нет
?Видео кодек: AVC
?Аудио кодек: AC3
?Видео: 1024 x 436 (2.349), 24.000 fps, ~1726 kbps, 0.161 bit/ pixel
?Аудио: 48 kHz, AC3 5.1 ch, ~384 kbps

MediaInfo

Complete name : F:VideoBagrovie reki _1,2Bagrovie reki 2.2004.HDRip-AVC.mkv
Format : Matroska
Format version : Version 2
File size : 1.46 GiB
Duration : 1h 39mn
Overall bit rate : 2 110 Kbps
Movie name : Les rivi?res pourpres II - Les anges de l'apocalyps 2004 - Release for zyyx
Encoded date : UTC 2012-03-08 21:17:25
Writing application : mkvmerge v4.6.0 ('Still Crazy After All These Years') сборка от Mar 13 2011 18:33:29
Writing library : libebml v1.2.0 + libmatroska v1.1.0
Video
ID : 1
Format : AVC
Format/Info : Advanced Video Codec
Format profile : High@L4.1
Format settings, CABAC : Yes
Format settings, ReFrames : 16 frames
Codec ID : V_MPEG4/ISO/AVC
Duration : 1h 39mn
Bit rate : 1 726 Kbps
Width : 1 024 pixels
Height : 436 pixels
Display aspect ratio : 2.35:1
Frame rate : 24.000 fps
Color space : YUV
Chroma subsampling : 4:2:0
Bit depth : 8 bits
Scan type : Progressive
Bits/(Pixel*Frame) : 0.161
Stream size : 1.17 GiB (80%)
Writing library : x264 core 114 r1924 08d04a4
Encoding settings : cabac=1 / ref=16 / deblock=1:-2:-1 / analyse=0x3:0x133 / me=umh / subme=9 / psy=1 / psy_rd=1.00:0.20 / mixed_ref=1 / me_range=32 / chroma_me=1 / trellis=2 / 8x8dct=1 / cqm=0 / deadzone=21,11 / fast_pskip=0 / chroma_qp_offset=-3 / threads=6 / sliced_threads=0 / nr=0 / decimate=1 / interlaced=0 / constrained_intra=0 / bframes=8 / b_pyramid=2 / b_adapt=2 / b_bias=0 / direct=3 / weightb=1 / open_gop=0 / weightp=2 / keyint=250 / keyint_min=23 / scenecut=40 / intra_refresh=0 / rc_lookahead=60 / rc=2pass / mbtree=1 / bitrate=1726 / ratetol=1.0 / qcomp=0.60 / qpmin=0 / qpmax=69 / qpstep=4 / cplxblur=20.0 / qblur=0.5 / ip_ratio=1.40 / aq=1:1.00
Default : Yes
Forced : No
Audio
ID : 2
Format : AC-3
Format/Info : Audio Coding 3
Mode extension : CM (complete main)
Format settings, Endianness : Big
Codec ID : A_AC3
Duration : 1h 39mn
Bit rate mode : Constant
Bit rate : 384 Kbps
Channel(s) : 6 channels
Channel positions : Front: L C R, Side: L R, LFE
Sampling rate : 48.0 KHz
Bit depth : 16 bits
Compression mode : Lossy
Stream size : 272 MiB (18%)
Default : Yes
Forced : No

Скриншоты

Багровые реки 2: Ангелы апокалипсиса / Les rivi?res pourpres II - Les anges de l'apocalypse

Багровые реки 2: Ангелы апокалипсиса / Les rivi?res pourpres II - Les anges de l'apocalypse
«Время не ждет! Через два часа свершится суд!»
?Год выпуска: 2004
?Страна: Франция, Италия, Великобритания
?Производство: Canal+ [fr], Epica Ltd.
?Жанр: Боевик, триллер, криминал
?Режиссёр: Оливье Даан
?В ролях: Жан Рено, Бенуа Мажимель, Кристофер Ли, Камилль Натта, Джонни Халлидей, Габриель Лазюр, Огустен Легран, Серж Рябукин, Андре Пенверн, Франсис Рено
?Перевод: Профессиональный (полное дублирование)
?Озвучка: Неизвестно
?Субтитры: Отсутствуют
?Описание: Капитан Пьер Ниман — полицейский. Чертовски хороший полицейский. Один из лучших. Его работа требуется в особенных случаях. Он умный и храбрый, за словом в карман не полезет. Он любит работать один, но зачастую ему требуется напарник, а то и два. Он ненавидит собак, но имеет свою собственную — йоркширского терьера.
Ему доставляет радость воздать по заслугам бандитам и убийцам, тем более, что они верят в свою безнаказанность, пока не перейдут дорогу Пьеру Ниману. Ниман расследует дело о человеке, замурованном в стену с загадочными знаками. В это время Реда, молодой капитан полиции, находит у дверей церкви полумёртвого двойника Иисуса Христа. Реда полагает, что эта история как-то связана с расследованием Нимана, учеником которого он был в полицейской школе.
В округе продолжаются убийства: таинственные монахи, обладающие сверхъестественной силой, убивают случайных встречных и исчезают бесследно. При помощи Мари, специалистки по истории религий, Ниман и Реда пытаются найти ответы на все вопросы…

?Качество: HDRip-AVC
?Продолжительность: 01:39:05
?Формат: MKV
?Главы: Нет
?Видео кодек: AVC
?Аудио кодек: AC3
?Видео: 1024 x 436 (2.349), 24.000 fps, ~1593 kbps, 0.149 bit/ ixel
?Аудио: 48 kHz, AC3 5.1 ch, ~384 kbps

MediaInfo

Complete name : F:VideoBagrovie reki _1,2Bagrovie reki.2000.HDRip-AVC.mkv
Format : Matroska
Format version : Version 2
File size : 1.46 GiB
Duration : 1h 45mn
Overall bit rate : 1 979 Kbps
Movie name : Les rivi?res pourpres 2000 - Release for zyyx
Encoded date : UTC 2012-03-08 17:59:23
Writing application : mkvmerge v4.6.0 ('Still Crazy After All These Years') сборка от Mar 13 2011 18:33:29
Writing library : libebml v1.2.0 + libmatroska v1.1.0
Video
ID : 1
Format : AVC
Format/Info : Advanced Video Codec
Format profile : High@L4.1
Format settings, CABAC : Yes
Format settings, ReFrames : 16 frames
Codec ID : V_MPEG4/ISO/AVC
Duration : 1h 45mn
Bit rate : 1 593 Kbps
Width : 1 024 pixels
Height : 436 pixels
Display aspect ratio : 2.35:1
Frame rate : 24.000 fps
Color space : YUV
Chroma subsampling : 4:2:0
Bit depth : 8 bits
Scan type : Progressive
Bits/(Pixel*Frame) : 0.149
Stream size : 1.15 GiB (79%)
Writing library : x264 core 114 r1924 08d04a4
Encoding settings : cabac=1 / ref=16 / deblock=1:-2:-1 / analyse=0x3:0x133 / me=umh / subme=9 / psy=1 / psy_rd=1.00:0.20 / mixed_ref=1 / me_range=32 / chroma_me=1 / trellis=2 / 8x8dct=1 / cqm=0 / deadzone=21,11 / fast_pskip=0 / chroma_qp_offset=-3 / threads=6 / sliced_threads=0 / nr=0 / decimate=1 / interlaced=0 / constrained_intra=0 / bframes=8 / b_pyramid=2 / b_adapt=2 / b_bias=0 / direct=3 / weightb=1 / open_gop=0 / weightp=2 / keyint=250 / keyint_min=23 / scenecut=40 / intra_refresh=0 / rc_lookahead=60 / rc=2pass / mbtree=1 / bitrate=1593 / ratetol=1.0 / qcomp=0.60 / qpmin=0 / qpmax=69 / qpstep=4 / cplxblur=20.0 / qblur=0.5 / ip_ratio=1.40 / aq=1:1.00
Default : Yes
Forced : No
Audio
ID : 2
Format : AC-3
Format/Info : Audio Coding 3
Mode extension : CM (complete main)
Format settings, Endianness : Big
Codec ID : A_AC3
Duration : 1h 45mn
Bit rate mode : Constant
Bit rate : 384 Kbps
Channel(s) : 6 channels
Channel positions : Front: L C R, Side: L R, LFE
Sampling rate : 48.0 KHz
Bit depth : 16 bits
Compression mode : Lossy
Stream size : 291 MiB (19%)
Default : Yes
Forced : No

Скриншоты

[Цитировать]



Показать сообщения:    

Текущее время: 07-Дек 19:25

Часовой пояс: UTC + 3


Вы не можете начинать темы
Вы не можете отвечать на сообщения
Вы не можете редактировать свои сообщения
Вы не можете удалять свои сообщения
Вы не можете голосовать в опросах
Вы не можете прикреплять файлы к сообщениям
Вы не можете скачивать файлы

!ВНИМАНИЕ!
Сайт не предоставляет электронные версии произведений, а занимается лишь коллекционированием и каталогизацией ссылок, присылаемых и публикуемых на форуме нашими читателями. Если вы являетесь правообладателем какого-либо представленного материала и не желаете, чтобы ссылка на него находилась в нашем каталоге, свяжитесь с нами, и мы незамедлительно удалим ее. Файлы для обмена на трекере предоставлены пользователями сайта, и администрация не несет ответственности за их содержание. Просьба не заливать файлы, защищенные авторскими правами, а также файлы нелегального содержания!