[ Сегодня идет свободное скачивание без начисления Download ]


Статистика раздачи
Нет
 
   
 
Top  
 
 
Без компромиссов / Blitz Год выпуска: 2011
Страна: Великобритания, Франция, США
Производство: Blitz Films, Lionsgate
Жанр: триллер, криминал
Режиссер: Эллиотт Лестер
В ролях: Джейсон Стэйтем, Пэдди Консидайн, Эйден Гиллен, Зэйв Эштон, Дэвид Моррисси, Нед Деннехи, Марк Райлэнс, Люк Эванс, Никки Хенсон, Стивен Харвуд-Браун
Перевод: Профессиональный (полное дублирование)
Субтитры: Отсутствуют
Описание: Семь или восемь? Не в граммах, а в полицейских!.. Именно этим вопросом задается лондонский маньяк, решивший прославиться. Выбрав себе для первых полос таблоидов звучный псевдоним Блиц и вооружившись молотком, Барри Вайс выходит на улицы. И теперь главному герою придется спасать свою шкуру и пытаться остановить сумасшедшего убийцу…
[kp]464020[/kp] [imdb]/tt1297919[/imdb]
Качество: HDRip
Продолжительность: 01:37:01
Формат: AVI
Видео кодек: XviD
Аудио кодек: MPEG Audio
Видео: 720x304 (2.37:1), 24.000 fps, XviD build 50, 874 kbps avg, 0.17 bit/pixel
Аудио: 48 kHz, MPEG Layer 3, 2 ch, 128.00 kbps avg

Media Info

Video
ID                                       : 0
Format                                   : MPEG-4 Visual
Format profile                           : Advanced Simple@L5
Format settings, BVOP                    : 2
Format settings, QPel                    : No
Format settings, GMC                     : No warppoints
Format settings, Matrix                  : Default (H.263)
Codec ID                                 : XVID
Codec ID/Hint                            : XviD
Duration                                 : 1h 37mn
Bit rate                                 : 875 Kbps
Width                                    : 720 pixels
Height                                   : 304 pixels
Display aspect ratio                     : 2.35:1
Frame rate                               : 24.000 fps
Color space                              : YUV
Chroma subsampling                       : 4:2:0
Bit depth                                : 8 bits
Scan type                                : Progressive
Compression mode                         : Lossy
Bits/(Pixel*Frame)                       : 0.167
Stream size                              : 607 MiB (86%)
Writing library                          : XviD 1.2.1 (UTC 2008-12-04)
Audio
ID                                       : 1
Format                                   : MPEG Audio
Format version                           : Version 1
Format profile                           : Layer 3
Codec ID                                 : 55
Codec ID/Hint                            : MP3
Duration                                 : 1h 37mn
Bit rate mode                            : Constant
Bit rate                                 : 128 Kbps
Channel(s)                               : 2 channels
Sampling rate                            : 48.0 KHz
Compression mode                         : Lossy
Stream size                              : 88.8 MiB (13%)
Alignment                                : Aligned on interleaves
Interleave, duration                     : 42 ms (1.00 video frame)
Interleave, preload duration             : 504 ms
Writing library                          : LAME3.98r
Encoding settings                        : -m s -V 4 -q 7 -lowpass 17 -b 128
[th]http://torrentsclub.org/pictures/697a74245a79196d31...36b3453.jpg[/th]
[th]http://torrentsclub.org/pictures/ed7757e5850a1cdc5b...dd49888.jpg[/th]
[th]http://torrentsclub.org/pictures/44276a60d083600dc3...e3ac8ea.jpg[/th]
[th]http://torrentsclub.org/pictures/2fab76c84d9b7c8b9a...1c49c66.jpg[/th]
[th]http://torrentsclub.org/pictures/21f928c026997fd720...f96924a.jpg[/th]
[Стол заказов][Прием РГ][О нас "RG Dark Lords]


Последний раз редактировалось: Hunter (2013-01-08 21:06), всего редактировалось 3 раз(а)

[Цитировать]



Показать сообщения:    

Текущее время: 11-Дек 07:18

Часовой пояс: UTC + 3


Вы не можете начинать темы
Вы не можете отвечать на сообщения
Вы не можете редактировать свои сообщения
Вы не можете удалять свои сообщения
Вы не можете голосовать в опросах
Вы не можете прикреплять файлы к сообщениям
Вы не можете скачивать файлы

!ВНИМАНИЕ!
Сайт не предоставляет электронные версии произведений, а занимается лишь коллекционированием и каталогизацией ссылок, присылаемых и публикуемых на форуме нашими читателями. Если вы являетесь правообладателем какого-либо представленного материала и не желаете, чтобы ссылка на него находилась в нашем каталоге, свяжитесь с нами, и мы незамедлительно удалим ее. Файлы для обмена на трекере предоставлены пользователями сайта, и администрация не несет ответственности за их содержание. Просьба не заливать файлы, защищенные авторскими правами, а также файлы нелегального содержания!