[ Сегодня идет свободное скачивание без начисления Download ]


Статистика раздачи
Качаю: [ 2 ]
Скачал: [ 19 ]
 
   
 
Top  
 
 
-ProfIT | PHP (1-3 уровень): Введение в профессию/Профессиональное программирование/Повышение квалификации (2015) PCRec - Автор (режиссер): Альберт Степанцев
Жанр: Веб-разработка, backend, PHP, базы данных, DevOps
Продолжительность: 33:11:04
Качество видео: PCRec
Видео: AVC/H.264, 1280x684, ~208 Kbps
Аудио: AAC, 2 ch, 126 Kbps
Описание:
О языке программирования PHP ходят много мифов. Мол неправильный он, некрасивый, ООП в нём ненастоящее... Почему же тогда его используют Facebook и ВКонтакте, Википедия и Badoo? — потому что это очень гибкий язык, позволяющий создавать веб-приложения любой сложности! - потому что изучить PHP очень легко, а начать применять на практике можно буквально после нескольких уроков! - потому что современный PHP очень быстрый и нетребовательный к памяти, идеален для применения в системах с высокой нагрузкой!
Во всех трех уровнях включены доп. файлы.

PHP-1: введение в профессию

1. Быстрый старт: выражения и переменные, типы
2. Функции. Операторы контроля. Включение файлов.
3. Массивы. Циклы. Взаимодействие с пользователем.
4. Повторение пройденного
5. Работа с файлами на сервере. Загрузка от клиента.
6. Классы и объекты. Введение в ООП.
7. Объектно-ориентированный подход
8. Работа с базой данных

PHP-2: профессиональное программирование

1. Модели данных и ООП
2. Продолжение разговора о моделях
3. Изоляция уровня представления
4. Контроллеры и фронт-контроллер
5. Исключения
6. Современные стандарты PHP
7. "Новые" возможности PHP
8. Обзор современных фреймворков

PHP-3: Повышение квалификации

. Composer и Phing - вместе веселее!
2. Миграции - управляем изменениями в БД
3. Консольное приложение и его тайны
4. Внутри PHP: ссылки и управление памятью
5. PHP Reflection API
6. Веб-сервисы, распределенная архитектура и REST
7. Введение в безопасную разработку

Mediainfo:

General
Complete name                            : C:\Users\Vlad\Desktop\php\PHP-1\3 урок 2016-04-11.mp4
Format                                   : MPEG-4
Format profile                           : Base Media / Version 2
Codec ID                                 : mp42 (mp42/isom)
File size                                : 181 MiB
Duration                                 : 1h 17mn
Overall bit rate mode                    : Variable
Overall bit rate                         : 325 Kbps
Video
ID                                       : 1
Format                                   : AVC
Format/Info                              : Advanced Video Codec
Format profile                           : [url=mailto:[email protected]][email protected][/url]
Format settings, CABAC                   : Yes
Format settings, ReFrames                : 1 frame
Codec ID                                 : avc1
Codec ID/Info                            : Advanced Video Coding
Duration                                 : 1h 17mn
Source duration                          : 1h 17mn
Bit rate                                 : 196 Kbps
Width                                    : 1 280 pixels
Height                                   : 684 pixels
Display aspect ratio                     : 1.85:1
Frame rate mode                          : Variable
Frame rate                               : 15.000 fps
Minimum frame rate                       : 15.000 fps
Maximum frame rate                       : 15.003 fps
Color space                              : YUV
Chroma subsampling                       : 4:2:0
Bit depth                                : 8 bits
Scan type                                : Progressive
Bits/(Pixel*Frame)                       : 0.015
Stream size                              : 109 MiB (60%)
Source stream size                       : 109 MiB (60%)
Language                                 : English
mdhd_Duration                            : 4670662
Audio
ID                                       : 2
Format                                   : AAC
Format/Info                              : Advanced Audio Codec
Format profile                           : LC
Codec ID                                 : 40
Duration                                 : 1h 17mn
Source duration                          : 1h 17mn
Bit rate mode                            : Variable
Bit rate                                 : 126 Kbps
Channel(s)                               : 2 channels
Channel positions                        : Front: L R
Sampling rate                            : 44.1 KHz
Frame rate                               : 43.066 fps (1024 spf)
Compression mode                         : Lossy
Stream size                              : 69.9 MiB (39%)
Source stream size                       : 69.9 MiB (39%)
Language                                 : English
mdhd_Duration                            : 4670631
Скриншоты:

[Цитировать]



Показать сообщения:    

Текущее время: 04-Дек 02:59

Часовой пояс: UTC + 3


Вы не можете начинать темы
Вы не можете отвечать на сообщения
Вы не можете редактировать свои сообщения
Вы не можете удалять свои сообщения
Вы не можете голосовать в опросах
Вы не можете прикреплять файлы к сообщениям
Вы не можете скачивать файлы

!ВНИМАНИЕ!
Сайт не предоставляет электронные версии произведений, а занимается лишь коллекционированием и каталогизацией ссылок, присылаемых и публикуемых на форуме нашими читателями. Если вы являетесь правообладателем какого-либо представленного материала и не желаете, чтобы ссылка на него находилась в нашем каталоге, свяжитесь с нами, и мы незамедлительно удалим ее. Файлы для обмена на трекере предоставлены пользователями сайта, и администрация не несет ответственности за их содержание. Просьба не заливать файлы, защищенные авторскими правами, а также файлы нелегального содержания!