[ Сегодня идет свободное скачивание без начисления Download ]


Статистика раздачи
Нет
 
   
 
Top  
 
 
Убей их всех / Kill 'em All«I'm going to hell when I die.»
Год выпуска: 2013
Страна: США
Производство: Epic Pictures Group
Жанр: боевик
Режиссер: Раймунд Хубер
В ролях: Джонни Месснер, Джа Хуи Лью, Аммара Сирипонг, Тим Мэн, Рашид Феникс, Джо Льюис, Брахим Ачаббаке, Эрик Маркус Шуетз
Перевод: Любительский (двухголосый)
Субтитры: Отсутствуют
Описание: Маниакальный злодей управляет смертельной игрой, в которую вовлечены ассасины со всего мира. Размещенные внутри изолированного бункера, эти безжалостные злодеи должны схватиться друг с другом и только один получит главный приз, а также свободу.
[kp]588837[/kp] [imdb]tt1928335[/imdb]
Качество: DVDRip
Продолжительность: 01:26:12
Формат: AVI
Видео кодек: XviD
Аудио кодек: AC3
Видео: 720x400 (1.80:1), 23.976 fps, XviD build 50, 1882 kbps avg, 0.27 bit/pixel
Аудио: 48 kHz, AC3 Dolby Digital, 3/2 (L,C,R,l,r) + LFE ch, 384 kbps

Media Info

Video
ID                                       : 0
Format                                   : MPEG-4 Visual
Format profile                           : Advanced Simple@L5
Format settings, BVOP                    : 2
Format settings, QPel                    : No
Format settings, GMC                     : No warppoints
Format settings, Matrix                  : Default (H.263)
Codec ID                                 : XVID
Codec ID/Hint                            : XviD
Duration                                 : 1h 26mn
Bit rate                                 : 1 882 Kbps
Width                                    : 720 pixels
Height                                   : 400 pixels
Display aspect ratio                     : 16:9
Frame rate                               : 23.976 fps
Color space                              : YUV
Chroma subsampling                       : 4:2:0
Bit depth                                : 8 bits
Scan type                                : Progressive
Compression mode                         : Lossy
Bits/(Pixel*Frame)                       : 0.273
Stream size                              : 1.13 GiB (83%)
Writing library                          : XviD 1.2.1 (UTC 2008-12-04)
Audio
ID                                       : 1
Format                                   : AC-3
Format/Info                              : Audio Coding 3
Mode extension                           : CM (complete main)
Format settings, Endianness              : Big
Codec ID                                 : 2000
Duration                                 : 1h 26mn
Bit rate mode                            : Constant
Bit rate                                 : 384 Kbps
Channel(s)                               : 6 channels
Channel positions                        : Front: L C R, Side: L R, LFE
Sampling rate                            : 48.0 KHz
Bit depth                                : 16 bits
Compression mode                         : Lossy
Stream size                              : 237 MiB (17%)
Alignment                                : Split accross interleaves
Interleave, duration                     : 42 ms (1.00 video frame)
Interleave, preload duration             : 500 ms
[th]http://torrentsclub.org/pictures/ca5b507c54c54c1eb0...11af41b.jpg[/th]
[th]http://torrentsclub.org/pictures/e122ada7863c32f64a...4df99d4.jpg[/th]
[th]http://torrentsclub.org/pictures/8cf0841b751737e721...26a56d5.jpg[/th]
[th]http://torrentsclub.org/pictures/6168fde8eeffdccb99...ca6e892.jpg[/th]
[Стол заказов][Прием РГ][О нас "RG Dark Lords]


Последний раз редактировалось: Hunter (2013-01-09 17:59), всего редактировалось 1 раз

[Цитировать]

смотреть стоит? хД

[Цитировать]

Выглядит слабовато) И рейтинг не очень. + ко всему перевод любительский)

[Цитировать]



Показать сообщения:    

Текущее время: 27-Июн 13:06

Часовой пояс: UTC + 6


Вы не можете начинать темы
Вы не можете отвечать на сообщения
Вы не можете редактировать свои сообщения
Вы не можете удалять свои сообщения
Вы не можете голосовать в опросах
Вы не можете прикреплять файлы к сообщениям
Вы не можете скачивать файлы

!ВНИМАНИЕ!
Сайт не предоставляет электронные версии произведений, а занимается лишь коллекционированием и каталогизацией ссылок, присылаемых и публикуемых на форуме нашими читателями. Если вы являетесь правообладателем какого-либо представленного материала и не желаете, чтобы ссылка на него находилась в нашем каталоге, свяжитесь с нами, и мы незамедлительно удалим ее. Файлы для обмена на трекере предоставлены пользователями сайта, и администрация не несет ответственности за их содержание. Просьба не заливать файлы, защищенные авторскими правами, а также файлы нелегального содержания!