[ Today is free to download without increasing Download ]

DL-List and Torrent activity
Убей их всех / Kill 'em All«I'm going to hell when I die.»
Год выпуска: 2013
Страна: США
Производство: Epic Pictures Group
Жанр: боевик
Режиссер: Раймунд Хубер
В ролях: Джонни Месснер, Джа Хуи Лью, Аммара Сирипонг, Тим Мэн, Рашид Феникс, Джо Льюис, Брахим Ачаббаке, Эрик Маркус Шуетз
Перевод: Любительский (двухголосый)
Субтитры: Отсутствуют
Описание: Маниакальный злодей управляет смертельной игрой, в которую вовлечены ассасины со всего мира. Размещенные внутри изолированного бункера, эти безжалостные злодеи должны схватиться друг с другом и только один получит главный приз, а также свободу.
[kp]588837[/kp] [imdb]tt1928335[/imdb]
Качество: DVDRip
Продолжительность: 01:26:12
Формат: AVI
Видео кодек: XviD
Аудио кодек: AC3
Видео: 720x400 (1.80:1), 23.976 fps, XviD build 50, 1882 kbps avg, 0.27 bit/pixel
Аудио: 48 kHz, AC3 Dolby Digital, 3/2 (L,C,R,l,r) + LFE ch, 384 kbps

Media Info

ID                                       : 0
Format                                   : MPEG-4 Visual
Format profile                           : Advanced Simple@L5
Format settings, BVOP                    : 2
Format settings, QPel                    : No
Format settings, GMC                     : No warppoints
Format settings, Matrix                  : Default (H.263)
Codec ID                                 : XVID
Codec ID/Hint                            : XviD
Duration                                 : 1h 26mn
Bit rate                                 : 1 882 Kbps
Width                                    : 720 pixels
Height                                   : 400 pixels
Display aspect ratio                     : 16:9
Frame rate                               : 23.976 fps
Color space                              : YUV
Chroma subsampling                       : 4:2:0
Bit depth                                : 8 bits
Scan type                                : Progressive
Compression mode                         : Lossy
Bits/(Pixel*Frame)                       : 0.273
Stream size                              : 1.13 GiB (83%)
Writing library                          : XviD 1.2.1 (UTC 2008-12-04)
ID                                       : 1
Format                                   : AC-3
Format/Info                              : Audio Coding 3
Mode extension                           : CM (complete main)
Format settings, Endianness              : Big
Codec ID                                 : 2000
Duration                                 : 1h 26mn
Bit rate mode                            : Constant
Bit rate                                 : 384 Kbps
Channel(s)                               : 6 channels
Channel positions                        : Front: L C R, Side: L R, LFE
Sampling rate                            : 48.0 KHz
Bit depth                                : 16 bits
Compression mode                         : Lossy
Stream size                              : 237 MiB (17%)
Alignment                                : Split accross interleaves
Interleave, duration                     : 42 ms (1.00 video frame)
Interleave, preload duration             : 500 ms
[Стол заказов][Прием РГ][О нас "RG Dark Lords]

Last edited by Hunter on 2013-01-09 14:59; edited 1 time in total


смотреть стоит? хД


Выглядит слабовато) И рейтинг не очень. + ко всему перевод любительский)


Display posts:    

Current time is: 28-Oct 07:35

All times are UTC + 3

You cannot post new topics in this forum
You cannot reply to topics in this forum
You cannot edit your posts in this forum
You cannot delete your posts in this forum
You cannot vote in polls in this forum
You cannot attach files in this forum
You cannot download files in this forum

The site does not give electronic versions of products, and is engaged only in a collecting and cataloguing of the references sent and published at a forum by our readers. If you are the legal owner of any submitted material and do not wish that the reference to it was in our catalogue, contact us and we shall immediately remove her. Files for an exchange on tracker are given by users of a site, and the administration does not bear the responsibility for their maintenance. The request to not fill in the files protected by copyrights, and also files of the illegal maintenance!