[ Сегодня идет свободное скачивание без начисления Download ]


Статистика раздачи
Нет
 
   
 
Top  
 
 
- Подводный флот Отечества (2016) DVB - Телекомпания: Студия видеопроизводства "Восток"
Жанр: Документальный, История
Участники: Продюсер и режиссер: Валентина Рассохо-Анохина
Описание:
Фильм расскажет об истории российского подводного флота и об отважных моряках, вы сможете заглянуть в процесс ведения боя под водой и узнаете о многих инновационных технологиях.
Продолжительность: ~00:43:00 (одна серия)
Качество видео: DVB
Видео: AVC/H.264, 720х576@768x576, ~1486 kb/s
Аудио: MP2, 2 ch, 128 kb/s, CBR

Mediainfo:

Общее
Идентификатор                            : 16 (0x10)
Полное имя                               : Подводный флот Отечества_part_1.ts
Формат                                   : MPEG-TS
Размер файла                             : 522 Мбайт
Продолжительность                        : 42 м.
Режим общего битрейта                    : Переменный
Общий поток                              : 1699 Кбит/сек
Видео
Идентификатор                            : 3218 (0xC92)
Идентификатор меню                       : 1218 (0x4C2)
Формат                                   : AVC
Формат/Информация                        : Advanced Video Codec
Профиль формата                          : [url=mailto:Main@L3.0]Main@L3.0[/url]
Параметр CABAC формата                   : Да
Параметр ReFrames формата                : 3 кадра
Идентификатор кодека                     : 27
Продолжительность                        : 42 м.
Битрейт                                  : 1486 Кбит/сек
Ширина                                   : 704 пикселя
Высота                                   : 576 пикселей
Соотношение сторон                       : 4:3
Частота кадров                           : 25,000 кадров/сек
Стандарт вещания                         : PAL
Цветовое пространство                    : YUV
Субдискретизация насыщенности            : 4:2:0
Битовая глубина                          : 8 бит
Тип развёртки                            : Прогрессивная
Бит/(Пиксели*Кадры)                      : 0.147
Размер потока                            : 457 Мбайт (87%)
Основные цвета                           : BT.601 PAL
Характеристики трансфера                 : BT.470 System B, BT.470 System G
Коэффициенты матрицы                     : BT.601
Аудио
Идентификатор                            : 4218 (0x107A)
Идентификатор меню                       : 1218 (0x4C2)
Формат                                   : MPEG Audio
Версия формата                           : Version 1
Профиль формата                          : Layer 2
Идентификатор кодека                     : 4
Продолжительность                        : 42 м.
Вид битрейта                             : Постоянный
Битрейт                                  : 128 Кбит/сек
Каналы                                   : 2 канала
Частота                                  : 48,0 КГц
Метод сжатия                             : С потерями
Задержка видео                           : 140 мс.
Размер потока                            : 39,3 Мбайт (8%)
Язык                                     : std
Язык, дополнительно                      : Clean effects
Скриншоты:

[Цитировать]



Показать сообщения:    

Текущее время: 09-Дек 20:33

Часовой пояс: UTC + 3


Вы не можете начинать темы
Вы не можете отвечать на сообщения
Вы не можете редактировать свои сообщения
Вы не можете удалять свои сообщения
Вы не можете голосовать в опросах
Вы не можете прикреплять файлы к сообщениям
Вы не можете скачивать файлы

!ВНИМАНИЕ!
Сайт не предоставляет электронные версии произведений, а занимается лишь коллекционированием и каталогизацией ссылок, присылаемых и публикуемых на форуме нашими читателями. Если вы являетесь правообладателем какого-либо представленного материала и не желаете, чтобы ссылка на него находилась в нашем каталоге, свяжитесь с нами, и мы незамедлительно удалим ее. Файлы для обмена на трекере предоставлены пользователями сайта, и администрация не несет ответственности за их содержание. Просьба не заливать файлы, защищенные авторскими правами, а также файлы нелегального содержания!